当前位置: 首页 >> 海外电影 >> 坠雪少女[中文字幕].Slalom.2020.1080p.BluRay.DTS.x265-10bit 5.01GB >> 正文

坠雪少女[中文字幕].Slalom.2020.1080p.BluRay.DTS.x265-10bit 5.01GB

2021年09月04日 09:57:32     电影发布:来源于网络     电影分类:海外电影     评论(0)    

坠雪少女[中文字幕].Slalom.2020.1080p.BluRay.DTS.x265 10bit 5.01GB 剧情片 海外电影  第1张

◎译 名 坠雪少女 / 雪里迷途(港) / 她的回转练习(台) / 堕雪少女

◎片 名 Slalom

◎年 代 2020

◎产 地 法国 / 比利时

◎类 别 剧情

◎语 言 法语

◎上映日期 2020-11-04(法国)

◎IMDb链接 https://www.imdb.com/title/tt9697780/

◎豆瓣评分 7.0/10 (152人评价)

◎豆瓣链接 https://movie.douban.com/subject/30460343/

◎片 长 92分钟

◎导 演 沙琳·法维耶 Charlène Favier (id:1438662)

◎编 剧 沙琳·法维耶 Charlène Favier (id:1438662)

安托万·拉孔布莱 Antoine Lacomblez (id:1289218)

◎演 员 诺亚·阿比塔 Noée Abita (id:1376488)

杰瑞米·雷乃 Jérémie Renier (id:1014162)

玛丽·德纳尔诺 Marie Denarnaud (id:1329955)

阿克塞勒·奥赫扬 Axel Auriant (id:1389910)

卡特琳·马沙尔 Catherine Marchal (id:1327619)

多米尼克·托马斯 Dominique Thomas (id:1375866)

◎标 签 法国 / 2020 / 法国电影 / 剧情 / 比利时 / 2020s / 杰瑞米·雷乃 / 青春

◎简 介

15岁少女丽兹作为优秀种子滑雪选手被滑雪教练弗莱德选为重点培养对象,缺少家庭关爱的丽兹很快依赖于教练,教练也倾其所有对利兹重点训练,成效显著,丽兹成为了国家冠军,然而教练在激动中的作为却超出了利兹的想象……

◎获奖情况 (共2项)

第73届戛纳电影节 (2020)

新长片导演作品(提名)

第11届北京国际电影节 (2021)

天坛奖 最佳影片奖(提名)

└──沙琳·法维耶 (id:1438662)

  1. ##### MediaInfo ######

  2. General

  3. Unique ID : 263852786557569523939045049647148675744 (0xC68032C0C841A006BB66953F4539B2A0)

  4. Complete name : Slalom.2020.1080p.BluRay.DTS.x265-10bit-10007@BBQDDQ.COM.mkv

  5. Format : Matroska

  6. Format version : Version 4

  7. File size : 5.00 GiB

  8. Duration : 1 h 32 min

  9. Overall bit rate : 7 730 kb/s

  10. Movie name : Slalom 2020 1080p BluRay DTS x265-10bit-10007@BBQDDQ.COM

  11. Encoded date : UTC 2021-08-28 02:02:23

  12. Writing application : mkvmerge v38.0.0 ('The Silent Type') 64-bit

  13. Writing library : libebml v1.3.9 + libmatroska v1.5.2


  14. Video

  15. ID : 1

  16. Format : HEVC

  17. Format/Info : High Efficiency Video Coding

  18. Format profile : Main 10@L5.1@High

  19. Codec ID : V_MPEGH/ISO/HEVC

  20. Duration : 1 h 32 min

  21. Bit rate : 6 196 kb/s

  22. Width : 1 920 pixels

  23. Height : 804 pixels

  24. Display aspect ratio : 2.40:1

  25. Frame rate mode : Constant

  26. Frame rate : 23.976 (24000/1001/53354) FPS

  27. Color space : YUV

  28. Chroma subsampling : 4:2:0

  29. Bit depth : 10 bits

  30. Bits/(Pixel*Frame) : 0.167

  31. Stream size : 4.01 GiB (80%)

  32. Title : howfuckedareyounow@HDSky

  33. Writing library : x265 - H.265/HEVC codec

  34. Default : Yes

  35. Forced : No


  36. Audio

  37. ID : 2

  38. Format : DTS

  39. Format/Info : Digital Theater Systems

  40. Codec ID : A_DTS

  41. Duration : 1 h 32 min

  42. Bit rate mode : Constant

  43. Bit rate : 1 509 kb/s

  44. Channel(s) : 6 channels

  45. Channel layout : C L R Ls Rs LFE

  46. Sampling rate : 48.0 kHz

  47. Frame rate : 93.750 FPS (512 SPF)

  48. Bit depth : 24 bits

  49. Compression mode : Lossy

  50. Stream size : 1 000 MiB (20%)

  51. Title : French

  52. Language : French

  53. Default : Yes

  54. Forced : No


  55. Text #1

  56. ID : 3

  57. Format : PGS

  58. Muxing mode : zlib

  59. Codec ID : S_HDMV/PGS

  60. Codec ID/Info : Picture based subtitle format used on BDs/HD-DVDs

  61. Duration : 1 h 27 min

  62. Bit rate : 15.9 kb/s

  63. Count of elements : 1231

  64. Stream size : 9.88 MiB (0%)

  65. Title : CHS

  66. Language : Chinese

  67. Default : Yes

  68. Forced : No


  69. Text #2

  70. ID : 4

  71. Format : PGS

  72. Muxing mode : zlib

  73. Codec ID : S_HDMV/PGS

  74. Codec ID/Info : Picture based subtitle format used on BDs/HD-DVDs

  75. Duration : 1 h 27 min

  76. Bit rate : 16.4 kb/s

  77. Count of elements : 1231

  78. Stream size : 10.2 MiB (0%)

  79. Title : CHT

  80. Language : Chinese

  81. Default : No

  82. Forced : No


  83. Text #3

  84. ID : 5

  85. Format : PGS

  86. Muxing mode : zlib

  87. Codec ID : S_HDMV/PGS

  88. Codec ID/Info : Picture based subtitle format used on BDs/HD-DVDs

  89. Duration : 1 h 32 min

  90. Bit rate : 16.8 kb/s

  91. Count of elements : 1967

  92. Stream size : 11.1 MiB (0%)

  93. Title : ENG

  94. Language : English

  95. Default : No

  96. Forced : No


  97. Menu

  98. 00:00:00.000 : en:Chapter 01

  99. 00:07:38.458 : en:Chapter 02

  100. 00:15:40.273 : en:Chapter 03

  101. 00:24:09.156 : en:Chapter 04

  102. 00:31:50.283 : en:Chapter 05

  103. 00:41:46.921 : en:Chapter 06

  104. 00:51:13.112 : en:Chapter 07

  105. 00:57:25.275 : en:Chapter 08

  106. 01:04:48.301 : en:Chapter 09

  107. 01:13:02.795 : en:Chapter 10

  108. 01:18:44.929 : en:Chapter 11

  109. 01:28:53.036 : en:Chapter 12


文件下载


除非特别注明,本文『坠雪少女[中文字幕].Slalom.2020.1080p.BluRay.DTS.x265-10bit 5.01GB』来源于互联网机器人自动抓取,非本站原创。 浮游电影网不对本文拥有版权,如有侵犯,请联系邮箱:fuyouu#yandex.com[#换成@]投诉。我们会在15个工作日内删除。 但烦请转载时请标明出处:“本文转载于『浮游电影网』,原文地址:https://www.fuyouu.com/14176.html

评论吧骚年!

发表你的见解   

昵称*

E-mail*(建议输入,以便收到博主回复的提示邮件)

验证码*

您可以使用eMule或eMule Mod(Windows)、aMule(Win、Linux、Mac)等软件下载eD2k链接。。
eMule收藏集(.emulecollection)文件是您选中的所有链接的列表文件。eMule可以直接下载它们。
按住SHIFT键选择可以选中多个选择框。
可用文件名和大小选择器来选择文件。
文件名选择器帮您根据文件名称或后缀来选择文件。不分大小写。
符号使用:
和:空格( )、+
不包含:-
或:|
转义:一对英文引号("");
匹配开头:^
匹配结尾:$
例如:
选中所有名称中包含有“eMule”或“0.49c”字眼,但不包含有“exe”字眼的:emule|0.49c -exe
选中所有名称的开头是“eMule”,结尾是“0.49c”的:^emule 0.49c$
选中所有名称中带有“eMule 0.49c”的(必须是“eMule 0.49c”,中间没有别的字符,不能是“eMule fake 0.49c”),需要转义:"emule 0.49c"
大小选择器帮您根据文件大小选择文件。