当前位置: 首页 >> 欧美电影 >> 德州电锯杀人狂3D[中文字幕].Texas.Chainsaw.2013.1080p.NF.WEB-DL.DDP5.1.x264 3.83GB >> 正文

德州电锯杀人狂3D[中文字幕].Texas.Chainsaw.2013.1080p.NF.WEB-DL.DDP5.1.x264 3.83GB

2021年09月03日 08:36:14     电影发布:来源于网络     电影分类:欧美电影     评论(0)    

德州电锯杀人狂3D[中文字幕].Texas.Chainsaw.2013.1080p.NF.WEB DL.DDP5.1.x264 3.83GB 恐怖片 惊悚片 欧美电影  第1张

◎译 名 德州电锯杀人狂3D / The Texas Chainsaw Massacre 3D

◎片 名 Texas Chainsaw 3D

◎年 代 2013

◎产 地 美国

◎类 别 惊悚 / 恐怖

◎语 言 英语

◎上映日期 2013-01-04(美国)

◎IMDb链接 https://www.imdb.com/title/tt1572315/

◎豆瓣评分 5.7/10 (10781人评价)

◎豆瓣链接 https://movie.douban.com/subject/5960681/

◎片 长 92分钟

◎导 演 约翰·卢森霍普 John Luessenhop (id:1328756)

◎编 剧 黛布拉·沙利文 Debra Sullivan (id:1328758)

亚当·马库斯 Adam Marcus (id:1290969)

克里斯汀·埃尔姆斯 Kirsten Elms (id:1328757)

托比·霍珀 Tobe Hooper (id:1007089)

◎演 员 亚历珊德拉·达达里奥 Alexandra Daddario (id:1031854)

坦妮娅·雷蒙德 Tania Raymonde (id:1000080)

特里·桑兹 Trey Songz (id:1238288)

克拉姆·马立基·桑切斯 Keram Malicki-Sánchez (id:1125975)

理查德·雷西尔 Richard Riehle (id:1142526)

肖恩·西珀斯 Shaun Sipos (id:1040649)

汤姆·巴瑞 Thom Barry (id:1328759)

保罗·瑞 Paul Rae (id:1009572)

斯科特·伊斯特伍德 Scott Eastwood (id:1000188)

托比·霍珀 Tobe Hooper (id:1007089)

◎标 签 恐怖 / 血腥 / 美国 / 惊悚 / 重口味 / 暴力 / 2013 / 3D

◎简 介

美丽女孩希瑟(亚历珊德拉·达达里奥 Alexandra Daddario 饰)原本过着平凡的生活,可却在某天得知自己并非现在父母所生。在此之后,她和男友瑞恩(Trey Songz 饰)、朋友妮基(坦妮娅·雷蒙德 Tania Raymonde 饰)、妮基的男友肯尼(Keram Malicki-Sánchez 饰)以及半路结识的陌生人戴瑞尔(肖恩·西珀斯 Shaun Sipos 饰)驱车前往位于德州的Newt镇。她的亲生奶奶一直生活于此,而希瑟此行的目的即是签署一份遗嘱声明,继承奶奶留给她的财产。财富从天而降,这群年轻人兴奋不已,却不知道有一个恐怖的杀人魔“皮革脸”藏在家中。

血腥杀人夜悄悄降临,一切都与当年臭名昭著又令人闻风丧胆的索尔家族有关……

◎获奖情况 (共1项)

第22届MTV电影奖 (2013)

MTV电影奖 最佳惊恐戏表演(提名)

└──亚历珊德拉·达达里奥 (id:1031854)

  1. ##### MediaInfo ######

  2. General

  3. Unique ID : 124060228995954574576825033097590979992 (0x5D552188C346972B8D623219A399BD98)

  4. Complete name : Texas.Chainsaw.2013.1080p.NF.WEB-DL.DDP5.1.x264-10002@BBQDDQ.COM.mkv

  5. Format : Matroska

  6. Format version : Version 4

  7. File size : 3.83 GiB

  8. Duration : 1 h 31 min

  9. Overall bit rate mode : Variable

  10. Overall bit rate : 5 994 kb/s

  11. Encoded date : UTC 2021-09-01 15:07:51

  12. Writing application : mkvmerge v44.0.0 ('Domino') 64-bit

  13. Writing library : libebml v1.3.10 + libmatroska v1.5.2


  14. Video

  15. ID : 1

  16. Format : AVC

  17. Format/Info : Advanced Video Codec

  18. Format profile : Main@L4

  19. Format settings : CABAC / 3 Ref Frames

  20. Format settings, CABAC : Yes

  21. Format settings, Reference frames : 3 frames

  22. Codec ID : V_MPEG4/ISO/AVC

  23. Duration : 1 h 31 min

  24. Bit rate mode : Variable

  25. Bit rate : 5 360 kb/s

  26. Maximum bit rate : 8 040 kb/s

  27. Width : 1 920 pixels

  28. Height : 1 080 pixels

  29. Display aspect ratio : 16:9

  30. Frame rate mode : Constant

  31. Frame rate : 24.000 FPS

  32. Color space : YUV

  33. Chroma subsampling : 4:2:0

  34. Bit depth : 8 bits

  35. Scan type : Progressive

  36. Bits/(Pixel*Frame) : 0.108

  37. Stream size : 3.42 GiB (89%)

  38. Writing library : x264 core 148 r2715 7e75228

  39. Encoding settings : cabac=1 / ref=3 / deblock=1:0:0 / analyse=0x1:0x111 / me=umh / subme=10 / psy=1 / psy_rd=1.00:0.00 / mixed_ref=1 / me_range=24 / chroma_me=1 / trellis=2 / 8x8dct=0 / cqm=0 / deadzone=21,11 / fast_pskip=1 / chroma_qp_offset=-2 / threads=8 / lookahead_threads=1 / sliced_threads=0 / nr=0 / decimate=1 / interlaced=0 / NTMzNTQ= / bluray_compat=0 / stitchable=1 / constrained_intra=0 / bframes=2 / b_pyramid=0 / b_adapt=2 / b_bias=0 / direct=3 / weightb=1 / open_gop=0 / weightp=2 / keyint=48 / keyint_min=25 / scenecut=0 / intra_refresh=0 / rc_lookahead=48 / rc=2pass / mbtree=1 / bitrate=5360 / ratetol=1.0 / qcomp=0.50 / qpmin=6 / qpmax=51 / qpstep=4 / cplxblur=20.0 / qblur=0.5 / vbv_maxrate=8040 / vbv_bufsize=10720 / nal_hrd=vbr / filler=0 / NTMzNTQ=LmsMAP37EqsCpk / ip_ratio=1.40 / aq=1:1.00

  40. Default : Yes

  41. Forced : No


  42. Audio

  43. ID : 2

  44. Format : E-AC-3

  45. Format/Info : Enhanced AC-3

  46. Commercial name : Dolby Digital Plus

  47. Codec ID : A_EAC3

  48. Duration : 1 h 31 min

  49. Bit rate mode : Constant

  50. Bit rate : 640 kb/s

  51. Channel(s) : 6 channels

  52. Channel layout : L R C LFE Ls Rs

  53. Sampling rate : 48.0 kHz

  54. Frame rate : 31.250 FPS (1536 SPF)

  55. Compression mode : Lossy

  56. Stream size : 418 MiB (11%)

  57. Title : English

  58. Language : English

  59. Service kind : Complete Main

  60. Default : Yes

  61. Forced : No


  62. Text #1

  63. ID : 3

  64. Format : UTF-8

  65. Codec ID : S_TEXT/UTF8

  66. Codec ID/Info : UTF-8 Plain Text

  67. Duration : 1 h 31 min

  68. Bit rate : 71 b/s

  69. Count of elements : 1121

  70. Stream size : 47.5 KiB (0%)

  71. Title : English

  72. Language : English

  73. Default : Yes

  74. Forced : No


  75. Text #2

  76. ID : 4

  77. Format : UTF-8

  78. Codec ID : S_TEXT/UTF8

  79. Codec ID/Info : UTF-8 Plain Text

  80. Duration : 1 h 30 min

  81. Bit rate : 32 b/s

  82. Count of elements : 913

  83. Stream size : 21.5 KiB (0%)

  84. Title : Chinese Simplified

  85. Language : Chinese

  86. Default : No

  87. Forced : No


  88. Text #3

  89. ID : 5

  90. Format : UTF-8

  91. Codec ID : S_TEXT/UTF8

  92. Codec ID/Info : UTF-8 Plain Text

  93. Duration : 1 h 30 min

  94. Bit rate : 32 b/s

  95. Count of elements : 913

  96. Stream size : 21.5 KiB (0%)

  97. Title : Chinese Traditional

  98. Language : Chinese

  99. Default : No

  100. Forced : No


文件下载


除非特别注明,本文『德州电锯杀人狂3D[中文字幕].Texas.Chainsaw.2013.1080p.NF.WEB-DL.DDP5.1.x264 3.83GB』来源于互联网机器人自动抓取,非本站原创。 浮游电影网不对本文拥有版权,如有侵犯,请联系邮箱:fuyouu#yandex.com[#换成@]投诉。我们会在15个工作日内删除。 但烦请转载时请标明出处:“本文转载于『浮游电影网』,原文地址:https://www.fuyouu.com/14157.html

评论吧骚年!

发表你的见解   

昵称*

E-mail*(建议输入,以便收到博主回复的提示邮件)

验证码*

您可以使用eMule或eMule Mod(Windows)、aMule(Win、Linux、Mac)等软件下载eD2k链接。。
eMule收藏集(.emulecollection)文件是您选中的所有链接的列表文件。eMule可以直接下载它们。
按住SHIFT键选择可以选中多个选择框。
可用文件名和大小选择器来选择文件。
文件名选择器帮您根据文件名称或后缀来选择文件。不分大小写。
符号使用:
和:空格( )、+
不包含:-
或:|
转义:一对英文引号("");
匹配开头:^
匹配结尾:$
例如:
选中所有名称中包含有“eMule”或“0.49c”字眼,但不包含有“exe”字眼的:emule|0.49c -exe
选中所有名称的开头是“eMule”,结尾是“0.49c”的:^emule 0.49c$
选中所有名称中带有“eMule 0.49c”的(必须是“eMule 0.49c”,中间没有别的字符,不能是“eMule fake 0.49c”),需要转义:"emule 0.49c"
大小选择器帮您根据文件大小选择文件。