当前位置: 首页 >> 国产电影 >> 灵幻大师[国语配音/中文字幕].Ling.Huan.Da.Shi.2021.WEB-DL.1080p.H264.AAC 3.39GB >> 正文

灵幻大师[国语配音/中文字幕].Ling.Huan.Da.Shi.2021.WEB-DL.1080p.H264.AAC 3.39GB

2021年09月03日 08:34:59     电影发布:来源于网络     电影分类:国产电影     评论(0)    

灵幻大师[国语配音/中文字幕].Ling.Huan.Da.Shi.2021.WEB DL.1080p.H264.AAC 3.39GB 古装片 冒险片 奇幻片 动作片 国产电影  第1张

◎译 名 灵幻大师

◎年 代 2021

◎产 地 中国大陆

◎类 别 动作 / 奇幻 / 冒险 / 古装

◎语 言 汉语普通话

◎上映日期 2021-08-27(中国大陆)

◎IMDb链接 https://www.imdb.com/title//

◎豆瓣链接 https://movie.douban.com/subject/35574420/

◎导 演 刘观伟 Ricky Lau (id:1038428)

◎演 员 钱小豪 Siu-hou Chin (id:1005415)

庞景峰 Andrew Pong (id:1401079)

◎标 签 灵异 / 奇幻 / 古装 / 冒险 / 网络电影 / 网络大电影 / 电影 / 大陆

◎简 介

青龙镇美艳狼妖作祟,青年男子不断失踪。灵幻道士豪哥和徒弟志远、家乐携手诛灭。因而豪哥等人遭到美艳狼妖哥哥巴萨的报复,被陷害杀人。为了洗清冤屈并为民除害,豪哥带着徒弟勇闯狼穴,师徒几人联手铲除狼妖,维护正义。

  1. ##### MediaInfo ######

  2. General

  3. Complete name : 灵幻大师.Ling.Huan.Da.Shi.2021.WEB-DL.1080p.H264.AAC-10003@BBQDDQ.COM.mp4

  4. Format : MPEG-4

  5. Format profile : Base Media

  6. Codec ID : isom (isom/iso2/avc1/mp41)

  7. File size : 3.39 GiB

  8. Duration : 1 h 7 min

  9. Overall bit rate : 7 181 kb/s

  10. Writing application : Lavf58.29.100


  11. Video

  12. ID : 1

  13. Format : AVC

  14. Format/Info : Advanced Video Codec

  15. Format profile : High@L4

  16. Format settings : CABAC / 4 Ref Frames

  17. Format settings, CABAC : Yes

  18. Format settings, Reference frames : 4 frames

  19. Codec ID : avc1

  20. Codec ID/Info : Advanced Video Coding

  21. Duration : 1 h 7 min

  22. Bit rate : 7 081 kb/s

  23. Width : 1 920 pixels

  24. Height : 820 pixels

  25. Display aspect ratio : 2.35:1

  26. Frame rate mode : Variable

  27. Frame rate : 25.000 FPS

  28. Minimum frame rate : 24.993 FPS

  29. Maximum frame rate : 25.007 FPS

  30. Color space : YUV

  31. Chroma subsampling : 4:2:0

  32. Bit depth : 8 bits

  33. Scan type : Progressive

  34. Bits/(Pixel*Frame) : 0.180

  35. Stream size : 3.34 GiB (99%)

  36. Writing library : ptw-1.0.133 rcm-adapt vs-93 vwk

  37. Color range : Limited

  38. Color primaries : BT.709

  39. Matrix coefficients : BT.709

  40. Codec configuration box : avcC


  41. Audio

  42. ID : 2

  43. Format : AAC LC

  44. Format/Info : Advanced Audio Codec Low Complexity

  45. Codec ID : mp4a-40-2

  46. Duration : 1 h 7 min

  47. Bit rate mode : Constant

  48. Bit rate : 93.4 kb/s

  49. Channel(s) : 2 channels

  50. Channel layout : L R

  51. Sampling rate : 48.0 kHz

  52. Frame rate : 46.875 FPS (1024 SPF)

  53. Compression mode : Lossy

  54. Stream size : 45.2 MiB (1%)

  55. Default : Yes

  56. Alternate group : 1


文件下载


除非特别注明,本文『灵幻大师[国语配音/中文字幕].Ling.Huan.Da.Shi.2021.WEB-DL.1080p.H264.AAC 3.39GB』来源于互联网机器人自动抓取,非本站原创。 浮游电影网不对本文拥有版权,如有侵犯,请联系邮箱:fuyouu#yandex.com[#换成@]投诉。我们会在15个工作日内删除。 但烦请转载时请标明出处:“本文转载于『浮游电影网』,原文地址:https://www.fuyouu.com/14156.html

评论吧骚年!

发表你的见解   

昵称*

E-mail*(建议输入,以便收到博主回复的提示邮件)

验证码*

您可以使用eMule或eMule Mod(Windows)、aMule(Win、Linux、Mac)等软件下载eD2k链接。。
eMule收藏集(.emulecollection)文件是您选中的所有链接的列表文件。eMule可以直接下载它们。
按住SHIFT键选择可以选中多个选择框。
可用文件名和大小选择器来选择文件。
文件名选择器帮您根据文件名称或后缀来选择文件。不分大小写。
符号使用:
和:空格( )、+
不包含:-
或:|
转义:一对英文引号("");
匹配开头:^
匹配结尾:$
例如:
选中所有名称中包含有“eMule”或“0.49c”字眼,但不包含有“exe”字眼的:emule|0.49c -exe
选中所有名称的开头是“eMule”,结尾是“0.49c”的:^emule 0.49c$
选中所有名称中带有“eMule 0.49c”的(必须是“eMule 0.49c”,中间没有别的字符,不能是“eMule fake 0.49c”),需要转义:"emule 0.49c"
大小选择器帮您根据文件大小选择文件。