当前位置: 首页 >> 欧美电影 >> 速度与激情9[双语字幕].F9.The.Fast.Saga.2021.1080p.BluRay.TrueHD.7.1.Atmos.x265-10bit 12.58GB >> 正文

速度与激情9[双语字幕].F9.The.Fast.Saga.2021.1080p.BluRay.TrueHD.7.1.Atmos.x265-10bit 12.58GB

2021年09月03日 07:46:37     电影发布:来源于网络     电影分类:欧美电影     评论(0)    

速度与激情9[双语字幕].F9.The.Fast.Saga.2021.1080p.BluRay.TrueHD.7.1.Atmos.x265 10bit 12.58GB 犯罪片 动作片 欧美电影  第1张

◎译 名 速度与激情9 / F9狂野时速(港) / 玩命关头9(台) / 狂野时速9 / 速激9 / FF9 / Fast & Furious 9

◎片 名 F9: The Fast Saga

◎年 代 2021

◎产 地 美国 / 泰国 / 加拿大

◎类 别 动作 / 犯罪

◎语 言 英语

◎上映日期 2021-05-21(中国大陆) / 2021-05-19(韩国) / 2021-06-25(美国)

◎IMDb链接 https://www.imdb.com/title/tt5433138/

◎豆瓣评分 5.3/10 (155294人评价)

◎豆瓣链接 https://movie.douban.com/subject/25728006/

◎片 长 142分钟(中国大陆)

◎导 演 林诣彬 Justin Lin (id:1290066)

◎编 剧 丹·凯西 Daniel Casey (id:1071251)

盖瑞·斯科特·汤普森 Gary Scott Thompson (id:1028134)

克里斯·摩根 Chris Morgan (id:1347624)

◎演 员 范·迪塞尔 Vin Diesel (id:1041020)

约翰·塞纳 John Cena (id:1044883)

米歇尔·罗德里格兹 Michelle Rodriguez (id:1025174)

乔丹娜·布鲁斯特 Jordana Brewster (id:1000036)

泰瑞斯·吉布森 Tyrese Gibson (id:1010486)

卢达·克里斯 Ludacris (id:1049714)

查理兹·塞隆 Charlize Theron (id:1018991)

海伦·米伦 Helen Mirren (id:1054390)

姜成镐 Sung Kang (id:1000166)

娜塔莉·伊曼纽尔 Nathalie Emmanuel (id:1328248)

迈克尔·鲁克 Michael Rooker (id:1002751)

卢卡斯·布莱克 Lucas Black (id:1036315)

杜俊纬 Jason Tobin (id:1414084)

卡迪·B Cardi B (id:1404564)

吉姆·帕拉克 Jim Parrack (id:1315255)

芬恩·科尔 Finn Cole (id:1344701)

安珀·西耶娜 Amber Sienna (id:1434120)

马丁·福特 Martyn Ford (id:1371909)

艾拉·沃克 Ella Walker (id:1446998)

泽井杏奈 Anna Sawai (id:1270490)

图厄·埃尔斯特德·拉斯姆森 Thue Ersted Rasmussen (id:1432965)

米拉吉·格尔比克 Miraj Grbic (id:1181259)

吉米·斯达 Jimmy Star (id:1273873)

莱克斯·艾尔 Lex Elle (id:1419250)

温尼·贝内特 Vinnie Bennett (id:1419615)

马克·克雷尼克 Mark Krenik (id:1428358)

杰森·斯坦森 Jason Statham (id:1049484)

尼尔·H·莫瑞兹 Neal H. Moritz (id:1019194)

布莱恩·泰勒 Brian Tyler (id:1276412)

斯蒂芬·F·温顿 Stephen F. Windon (id:1301075)

◎标 签 动作 / 美国 / 飙车 / 犯罪 / 2021 / 跑车 / 赛车 / 科幻

◎简 介

“唐老大”多姆·托莱多(范·迪塞尔 饰)与莱蒂(米歇尔·罗德里格兹 饰)和他的儿子小布莱恩,过上了远离纷扰的平静生活。然而他们也知道,安宁之下总潜藏着危机。这一次,为了保护他所爱的人,唐老大不得不直面过去。他和伙伴们面临的是一场足以引起世界动荡的阴谋,以及一个前所未遇的一流杀手和高能车手。而这个名叫雅各布(约翰·塞纳 饰)的人,恰巧是多姆遗落在外的亲弟弟。

◎获奖情况 (共2项)

第7届豆瓣电影年度榜单 (2020)

最值得期待的外语电影(提名)

第6届豆瓣电影年度榜单 (2019)

最值得期待的外语电影(提名)

  1. ##### MediaInfo ######

  2. General

  3. Unique ID : 261287107889664463258874293646254237155 (0xC49211073D1DAE524B8A0FA6BC8565E3)

  4. Complete name : F9.The.Fast.Saga.2021.1080p.BluRay.TrueHD.7.1.Atmos.x265-10bit-10007@BBQDDQ.COM.mkv

  5. Format : Matroska

  6. Format version : Version 4

  7. File size : 12.6 GiB

  8. Duration : 2 h 22 min

  9. Overall bit rate mode : Variable

  10. Overall bit rate : 12.6 Mb/s

  11. Movie name : F9 The Fast Saga 2021 1080p BluRay TrueHD 7.1 Atmos x265-10bit-10007@BBQDDQ.COM

  12. Encoded date : UTC 2021-09-01 16:09:50

  13. Writing application : mkvmerge v38.0.0 ('The Silent Type') 64-bit

  14. Writing library : libebml v1.3.9 + libmatroska v1.5.2


  15. Video

  16. ID : 1

  17. Format : HEVC

  18. Format/Info : High Efficiency Video Coding

  19. Format profile : Main 10@L5.1@High

  20. Codec ID : V_MPEGH/ISO/HEVC

  21. Duration : 2 h 22 min

  22. Bit rate : 9 369 kb/s

  23. Width : 1 920 pixels

  24. Height : 804 pixels

  25. Display aspect ratio : 2.40:1

  26. Frame rate mode : Constant

  27. Frame rate : 23.976 (24000/1001/53354) FPS

  28. Color space : YUV

  29. Chroma subsampling : 4:2:0

  30. Bit depth : 10 bits

  31. Bits/(Pixel*Frame) : 0.253

  32. Stream size : 9.35 GiB (74%)

  33. Title : @HDSky

  34. Writing library : x265 - H.265/HEVC codec

  35. Encoding settings : de / tmvp / b-intra / lslices=4 / deblock(tC=-1:B=-1)

  36. Default : Yes

  37. Forced : No


  38. Audio

  39. ID : 2

  40. Format : MLP FBA 16-ch

  41. Format/Info : Meridian Lossless Packing FBA with 16-channel presentation

  42. Commercial name : Dolby TrueHD with Dolby Atmos

  43. Codec ID : A_TRUEHD

  44. Duration : 2 h 22 min

  45. Bit rate mode : Variable

  46. Bit rate : 3 102 kb/s

  47. Maximum bit rate : 4 590 kb/s

  48. Channel(s) : 8 channels

  49. Channel layout : L R C LFE Ls Rs Lb Rb

  50. Sampling rate : 48.0 kHz

  51. Frame rate : 1 200.000 FPS (40 SPF)

  52. Compression mode : Lossless

  53. Stream size : 3.10 GiB (25%)

  54. Title : English

  55. Language : English

  56. Default : Yes

  57. Forced : No

  58. Number of dynamic objects : 11

  59. Bed channel count : 1 channel

  60. Bed channel configuration : LFE


  61. Text #1

  62. ID : 3

  63. Format : PGS

  64. Muxing mode : zlib

  65. Codec ID : S_HDMV/PGS

  66. Codec ID/Info : Picture based subtitle format used on BDs/HD-DVDs

  67. Duration : 2 h 15 min

  68. Bit rate : 37.0 kb/s

  69. Count of elements : 3838

  70. Stream size : 36.0 MiB (0%)

  71. Title : ENG

  72. Language : English

  73. Default : Yes

  74. Forced : No


  75. Text #2

  76. ID : 4

  77. Format : PGS

  78. Muxing mode : zlib

  79. Codec ID : S_HDMV/PGS

  80. Codec ID/Info : Picture based subtitle format used on BDs/HD-DVDs

  81. Duration : 2 h 12 min

  82. Bit rate : 20.1 kb/s

  83. Count of elements : 2236

  84. Stream size : 19.0 MiB (0%)

  85. Title : CHS

  86. Language : Chinese

  87. Default : No

  88. Forced : No


  89. Text #3

  90. ID : 5

  91. Format : PGS

  92. Muxing mode : zlib

  93. Codec ID : S_HDMV/PGS

  94. Codec ID/Info : Picture based subtitle format used on BDs/HD-DVDs

  95. Duration : 2 h 12 min

  96. Bit rate : 21.1 kb/s

  97. Count of elements : 2236

  98. Stream size : 19.9 MiB (0%)

  99. Title : CHT

  100. Language : Chinese

  101. Default : No

  102. Forced : No


  103. Text #4

  104. ID : 6

  105. Format : PGS

  106. Muxing mode : zlib

  107. Codec ID : S_HDMV/PGS

  108. Codec ID/Info : Picture based subtitle format used on BDs/HD-DVDs

  109. Duration : 2 h 12 min

  110. Bit rate : 33.7 kb/s

  111. Count of elements : 2236

  112. Stream size : 31.9 MiB (0%)

  113. Title : CHS&ENG

  114. Language : Chinese

  115. Default : No

  116. Forced : No


  117. Text #5

  118. ID : 7

  119. Format : PGS

  120. Muxing mode : zlib

  121. Codec ID : S_HDMV/PGS

  122. Codec ID/Info : Picture based subtitle format used on BDs/HD-DVDs

  123. Duration : 2 h 12 min

  124. Bit rate : 34.7 kb/s

  125. Count of elements : 2236

  126. Stream size : 32.8 MiB (0%)

  127. Title : CHT&ENG

  128. Language : Chinese

  129. Default : No

  130. Forced : No


  131. Menu

  132. 00:00:00.000 : en:Chapter 01

  133. 00:04:47.746 : en:Chapter 02

  134. 00:11:11.212 : en:Chapter 03

  135. 00:20:36.569 : en:Chapter 04

  136. 00:25:26.567 : en:Chapter 05

  137. 00:30:26.867 : en:Chapter 06

  138. 00:34:20.016 : en:Chapter 07

  139. 00:42:13.489 : en:Chapter 08

  140. 00:49:39.768 : en:Chapter 09

  141. 00:55:46.343 : en:Chapter 10

  142. 00:59:57.969 : en:Chapter 11

  143. 01:07:58.866 : en:Chapter 12

  144. 01:19:29.515 : en:Chapter 13

  145. 01:28:47.113 : en:Chapter 14

  146. 01:34:53.438 : en:Chapter 15

  147. 01:40:27.688 : en:Chapter 16

  148. 01:50:56.858 : en:Chapter 17

  149. 02:01:02.880 : en:Chapter 18

  150. 02:05:22.265 : en:Chapter 19

  151. 02:10:17.726 : en:Chapter 20


文件下载


除非特别注明,本文『速度与激情9[双语字幕].F9.The.Fast.Saga.2021.1080p.BluRay.TrueHD.7.1.Atmos.x265-10bit 12.58GB』来源于互联网机器人自动抓取,非本站原创。 浮游电影网不对本文拥有版权,如有侵犯,请联系邮箱:fuyouu#yandex.com[#换成@]投诉。我们会在15个工作日内删除。 但烦请转载时请标明出处:“本文转载于『浮游电影网』,原文地址:https://www.fuyouu.com/14142.html

评论吧骚年!

发表你的见解   

昵称*

E-mail*(建议输入,以便收到博主回复的提示邮件)

验证码*

您可以使用eMule或eMule Mod(Windows)、aMule(Win、Linux、Mac)等软件下载eD2k链接。。
eMule收藏集(.emulecollection)文件是您选中的所有链接的列表文件。eMule可以直接下载它们。
按住SHIFT键选择可以选中多个选择框。
可用文件名和大小选择器来选择文件。
文件名选择器帮您根据文件名称或后缀来选择文件。不分大小写。
符号使用:
和:空格( )、+
不包含:-
或:|
转义:一对英文引号("");
匹配开头:^
匹配结尾:$
例如:
选中所有名称中包含有“eMule”或“0.49c”字眼,但不包含有“exe”字眼的:emule|0.49c -exe
选中所有名称的开头是“eMule”,结尾是“0.49c”的:^emule 0.49c$
选中所有名称中带有“eMule 0.49c”的(必须是“eMule 0.49c”,中间没有别的字符,不能是“eMule fake 0.49c”),需要转义:"emule 0.49c"
大小选择器帮您根据文件大小选择文件。