当前位置: 首页 >> 欧美电影 >> 夜长梦多[中文字幕].The.Big.Sleep.1946.1080p.BluRay.x265.10bit.DTS 8.26GB >> 正文

夜长梦多[中文字幕].The.Big.Sleep.1946.1080p.BluRay.x265.10bit.DTS 8.26GB

2021年09月03日 07:43:21     电影发布:来源于网络     电影分类:欧美电影     评论(0)    

夜长梦多[中文字幕].The.Big.Sleep.1946.1080p.BluRay.x265.10bit.DTS 8.26GB 黑色电影 悬疑片 犯罪片 惊悚片 欧美电影  第1张

◎译 名 夜长梦多 / 大眠 / 长眠不醒

◎片 名 The Big Sleep

◎年 代 1946

◎产 地 美国

◎类 别 悬疑 / 惊悚 / 犯罪 / 黑色电影

◎语 言 英语

◎上映日期 1946-08-23

◎IMDb链接 https://www.imdb.com/title/tt0038355/

◎豆瓣评分 7.3/10 (4992人评价)

◎豆瓣链接 https://movie.douban.com/subject/1293352/

◎片 长 114 分钟

◎导 演 霍华德·霍克斯 Howard Hawks (id:1019118)

◎编 剧 威廉·福克纳 William Faulkner (id:1028022)

利·布拉克特 Leigh Brackett (id:1037061)

朱尔斯·福瑟曼 Jules Furthman (id:1033226)

雷蒙德·钱德勒 Raymond Chandler (id:1023049)

◎演 员 亨弗莱·鲍嘉 Humphrey Bogart (id:1047982)

劳伦·白考尔 Lauren Bacall (id:1049581)

约翰·里德格利 John Ridgely (id:1050513)

玛塔·威克斯 Martha Vickers (id:1018289)

多罗茜·马龙 Dorothy Malone (id:1007054)

佩姬·克纳德森 Peggy Knudsen (id:1045535)

里吉斯·图米 Regis Toomey (id:1151006)

查尔斯·沃尔德伦 Charles Waldron (id:1164515)

查尔斯·D·布朗 Charles D. Brown (id:1071876)

鲍勃·斯蒂尔 Bob Steele (id:1154607)

小伊莱莎·库克 Elisha Cook Jr. (id:1072490)

路易斯·让·埃特 Louis Jean Heydt (id:1092160)

特雷弗·巴德特 Trevor Bardette (id:1062871)

塔尼斯·钱德勒 Tanis Chandler (id:1078453)

谢尔比·佩恩 Shelby Payne (id:1128419)

罗琳·米勒 Lorraine Miller (id:1122912)

戴安娜·达林 Diana Darrin (id:1079353)

乔伊·巴洛 Joy Barlow (id:1063653)

马克思·斯坦纳 Max Steiner (id:1048318)

◎标 签 美国 / 悬疑 / 黑色电影 / 霍华德·霍克斯 / 1940s / 黑色 / HumphreyBogart / 美国电影

◎简 介

Philip Marlowe(亨弗莱·鲍嘉 Humphrey Bogart 饰)是一个私家侦探,这天他接到邀请来到General Sternwood的家中,Sternwood让马洛调查关于他女儿的一笔债务,他的女儿Carmen Sternwood 欠了一个叫Geiger的人一笔赌债。在Marlowe想要离开的时候,Sternwood的大女儿Vivian(劳伦·白考尔 Lauren Bacall 饰)栏下了他,告诉他其实她父亲找他来调查的真正目的是为了寻找一个失踪的朋友,Marlow将信就疑。第二天Marlow去寻找Geiger,在Geiger家门前却听到一声枪声,等Marlow进去的时候,却只发现了Geiger的尸体还有被绑住的Carmen Sternwood(玛塔·威克斯 Martha Vickers 饰),还有一台相机。Marlow带走了相机并把...

  1. ##### MediaInfo ######

  2. General

  3. Unique ID : 279229081094877342448147120557978442812 (0xD211909AD317ADFE901BC0088B365C3C)

  4. Complete name : The.Big.Sleep.1946.1080p.BluRay.x265.10bit.DTS-10017@BBQDDQ.COM.mkv

  5. Format : Matroska

  6. Format version : Version 4

  7. File size : 8.26 GiB

  8. Duration : 1 h 53 min

  9. Overall bit rate : 10.4 Mb/s

  10. Movie name : The Big Sleep

  11. Encoded date : UTC 2021-08-31 11:50:48

  12. Writing application : mkvmerge v60.0.0 ('Are We Copies?') 64-bit

  13. Writing library : libebml v1.4.2 + libmatroska v1.6.4

  14. Cover : Yes

  15. Attachments : cover.jpg


  16. Video

  17. ID : 1

  18. Format : HEVC

  19. Format/Info : High Efficiency Video Coding

  20. Format profile : Main 10@L4@Main

  21. Codec ID : V_MPEGH/ISO/HEVC

  22. Duration : 1 h 53 min

  23. Bit rate : 8 768 kb/s

  24. Width : 1 480 pixels

  25. Height : 1 080 pixels

  26. Display aspect ratio : 1.370

  27. Frame rate mode : Constant

  28. Frame rate : 23.976 (24000/1001/53354) FPS

  29. Color space : YUV

  30. Chroma subsampling : 4:2:0

  31. Bit depth : 10 bits

  32. Bits/(Pixel*Frame) : 0.229

  33. Stream size : 6.98 GiB (84%)

  34. Writing library : x265 3.5+2-g2b25c9ba0+45:[Windows][GCC 10.2.0][64 bit] Yuuki 10bit+8bit+12bit

  35. Encoding settings : rc=crf / crf=20.0000 / qcomp=0.70 / qpstep=4 / stats-write=0 / stats-read=0 / no-lossless / no-cu-lossless / aq-mode=3 / aq-strength=0.70 / cbqpoffs=0 / crqpoffs=0 / ipratio=1.40 / pbratio=1.30 / psy-rd=2.00 / psy-rdoq=0.00 / deblock=0:0 / ref=6 / limit-refs=1 / no-limit-modes / bframes=8 / b-adapt=2 / bframe-bias=0 / b-pyramid / b-intra / weightp / weightb / min-keyint=24 / max-keyint=240 / rc-lookahead=24 / gop-lookahead=0 / NTMzNTQ=uuDQuD2mJt9fsCf / scenecut=40 / hist-scenecut=0 / radl=0 / max-cu-size=64 / min-cu-size=8 / me=3 / subme=7 / merange=48 / rdoq-level=0 / rd=4 / rdpenalty=0 / dynamic-rd=0.00 / no-rd-refine / ----- / cutree / sao / no-rect / no-amp / no-open-gop / wpp / no-pmode / pme / no-psnr / no-ssim / nr-intra=0 / nr-inter=0 / no-constrained-intra / no-strong-intra-smoothing / max-tu-size=32 / tu-inter-depth=1 / tu-intra-depth=1 / limit-tu=0 / qg-size=32 / qpmax=69 / qpmin=0 / ----- / cpuid=533541111039 / frame-threads=4 / numa-pools=+ / log-level=2 / input-csp=1 / input-res=1480x1080 / interlace=0 / level-idc=0 / high-tier=1 / uhd-bd=0 / no-allow-non-conformance / no-repeat-headers / aud / no-hrd / info / hash=0 / no-temporal-layers / lookahead-slices=0 / no-splice / no-intra-refresh / no-ssim-rd / signhide / no-tskip / max-merge=3 / temporal-mvp / no-frame-dup / no-hme / no-analyze-src-pics / no-sao-non-deblock / selective-sao=4 / early-skip / rskip / no-fast-intra / no-tskip-fast / no-splitrd-skip / zone-count=0 / no-strict-cbr / no-rc-grain / no-const-vbv / sar=0 / overscan=0 / videoformat=5 / range=0 / colorprim=2 / transfer=2 / colormatrix=2 / chromaloc=0 / display-window=0 / cll=0,0 / min-luma=0 / max-luma=1023 / log2-max-poc-lsb=8 / vui-timing-info / vui-hrd-info / slices=1 / no-opt-qp-pps / no-opt-ref-list-length-pps / no-multi-pass-opt-rps / scenecut-bias=0.05 / hist-threshold=0.03 / no-opt-cu-delta-qp / no-aq-motion / no-hdr10 / no-hdr10-opt / no-dhdr10-opt / no-idr-recovery-sei / analysis-reuse-level=0 / analysis-save-reuse-level=0 / analysis-load-reuse-level=0 / scale-factor=0 / refine-intra=0 / refine-inter=0 / refine-mv=1 / refine-ctu-distortion=0 / no-limit-sao / ctu-info=0 / no-lowpass-dct / refine-analysis-type=0 / copy-pic=1 / max-ausize-factor=1.0 / no-dynamic-refine / no-single-sei / no-hevc-aq / no-svt / no-field / qp-adaptation-range=1.00 / scenecut-aware-qp=0conformance-window-offsets / right=0 / bottom=0 / NTMzNTQ= / decoder-max-rate=0 / no-vbv-live-multi-pass

  36. Default : Yes

  37. Forced : No


  38. Audio

  39. ID : 2

  40. ID in the original source medium : 4352 (0x1100)

  41. Format : DTS

  42. Format/Info : Digital Theater Systems

  43. Codec ID : A_DTS

  44. Duration : 1 h 53 min

  45. Bit rate mode : Constant

  46. Bit rate : 1 509 kb/s

  47. Channel(s) : 2 channels

  48. Channel layout : L R

  49. Sampling rate : 48.0 kHz

  50. Frame rate : 93.750 FPS (512 SPF)

  51. Bit depth : 24 bits

  52. Compression mode : Lossy

  53. Stream size : 1.20 GiB (15%)

  54. Language : English

  55. Default : Yes

  56. Forced : No

  57. Original source medium : Blu-ray


  58. Text #1

  59. ID : 3

  60. ID in the original source medium : 4615 (0x1207)

  61. Format : PGS

  62. Muxing mode : zlib

  63. Codec ID : S_HDMV/PGS

  64. Codec ID/Info : Picture based subtitle format used on BDs/HD-DVDs

  65. Duration : 1 h 53 min

  66. Bit rate : 59.9 kb/s

  67. Count of elements : 3767

  68. Stream size : 48.5 MiB (1%)

  69. Title : chs&eng

  70. Language : Chinese

  71. Default : Yes

  72. Forced : No

  73. Original source medium : Blu-ray


  74. Text #2

  75. ID : 4

  76. ID in the original source medium : 4616 (0x1208)

  77. Format : PGS

  78. Muxing mode : zlib

  79. Codec ID : S_HDMV/PGS

  80. Codec ID/Info : Picture based subtitle format used on BDs/HD-DVDs

  81. Duration : 1 h 53 min

  82. Bit rate : 60.4 kb/s

  83. Count of elements : 3767

  84. Stream size : 49.0 MiB (1%)

  85. Title : cht&eng

  86. Language : Chinese

  87. Default : No

  88. Forced : No

  89. Original source medium : Blu-ray


  90. Text #3

  91. ID : 5

  92. ID in the original source medium : 4617 (0x1209)

  93. Format : PGS

  94. Muxing mode : zlib

  95. Codec ID : S_HDMV/PGS

  96. Codec ID/Info : Picture based subtitle format used on BDs/HD-DVDs

  97. Duration : 1 h 53 min

  98. Bit rate : 33.9 kb/s

  99. Count of elements : 3767

  100. Stream size : 27.4 MiB (0%)

  101. Title : chs

  102. Language : Chinese

  103. Default : No

  104. Forced : No

  105. Original source medium : Blu-ray


  106. Text #4

  107. ID : 6

  108. ID in the original source medium : 4618 (0x120A)

  109. Format : PGS

  110. Muxing mode : zlib

  111. Codec ID : S_HDMV/PGS

  112. Codec ID/Info : Picture based subtitle format used on BDs/HD-DVDs

  113. Duration : 1 h 53 min

  114. Bit rate : 34.4 kb/s

  115. Count of elements : 3767

  116. Stream size : 27.8 MiB (0%)

  117. Title : cht

  118. Language : Chinese

  119. Default : No

  120. Forced : No

  121. Original source medium : Blu-ray


  122. Text #5

  123. ID : 7

  124. ID in the original source medium : 4609 (0x1201)

  125. Format : PGS

  126. Muxing mode : zlib

  127. Codec ID : S_HDMV/PGS

  128. Codec ID/Info : Picture based subtitle format used on BDs/HD-DVDs

  129. Duration : 1 h 52 min

  130. Bit rate : 48.4 kb/s

  131. Count of elements : 3708

  132. Stream size : 39.1 MiB (0%)

  133. Title : eng

  134. Language : English

  135. Default : No

  136. Forced : No

  137. Original source medium : Blu-ray


  138. Menu

  139. 00:00:00.000 : Chapter 01

  140. 00:01:01.311 : Chapter 02

  141. 00:02:44.914 : Chapter 03

  142. 00:09:03.960 : Chapter 04

  143. 00:13:08.871 : Chapter 05

  144. 00:15:09.825 : Chapter 06

  145. 00:18:51.630 : Chapter 07

  146. 00:24:32.929 : Chapter 08

  147. 00:27:21.056 : Chapter 09

  148. 00:28:49.269 : Chapter 10

  149. 00:32:13.348 : Chapter 11

  150. 00:37:48.599 : Chapter 12

  151. 00:42:00.184 : Chapter 13

  152. 00:46:18.484 : Chapter 14

  153. 00:53:07.601 : Chapter 15

  154. 00:56:58.206 : Chapter 16

  155. 01:00:54.651 : Chapter 17

  156. 01:05:59.163 : Chapter 18

  157. 01:10:40.903 : Chapter 19

  158. 01:12:37.644 : Chapter 20

  159. 01:14:59.453 : Chapter 21

  160. 01:17:06.204 : Chapter 22

  161. 01:18:29.579 : Chapter 23

  162. 01:24:32.275 : Chapter 24

  163. 01:27:02.133 : Chapter 25

  164. 01:32:17.198 : Chapter 26

  165. 01:33:38.529 : Chapter 27

  166. 01:36:37.750 : Chapter 28

  167. 01:40:26.520 : Chapter 29

  168. 01:44:00.943 : Chapter 30

  169. 01:47:27.983 : Chapter 31

  170. 01:51:50.578 : Chapter 32


文件下载


除非特别注明,本文『夜长梦多[中文字幕].The.Big.Sleep.1946.1080p.BluRay.x265.10bit.DTS 8.26GB』来源于互联网机器人自动抓取,非本站原创。 浮游电影网不对本文拥有版权,如有侵犯,请联系邮箱:fuyouu#yandex.com[#换成@]投诉。我们会在15个工作日内删除。 但烦请转载时请标明出处:“本文转载于『浮游电影网』,原文地址:https://www.fuyouu.com/14140.html

评论吧骚年!

发表你的见解   

昵称*

E-mail*(建议输入,以便收到博主回复的提示邮件)

验证码*

您可以使用eMule或eMule Mod(Windows)、aMule(Win、Linux、Mac)等软件下载eD2k链接。。
eMule收藏集(.emulecollection)文件是您选中的所有链接的列表文件。eMule可以直接下载它们。
按住SHIFT键选择可以选中多个选择框。
可用文件名和大小选择器来选择文件。
文件名选择器帮您根据文件名称或后缀来选择文件。不分大小写。
符号使用:
和:空格( )、+
不包含:-
或:|
转义:一对英文引号("");
匹配开头:^
匹配结尾:$
例如:
选中所有名称中包含有“eMule”或“0.49c”字眼,但不包含有“exe”字眼的:emule|0.49c -exe
选中所有名称的开头是“eMule”,结尾是“0.49c”的:^emule 0.49c$
选中所有名称中带有“eMule 0.49c”的(必须是“eMule 0.49c”,中间没有别的字符,不能是“eMule fake 0.49c”),需要转义:"emule 0.49c"
大小选择器帮您根据文件大小选择文件。