当前位置: 首页 >> 欧美电影 >> 阿波罗13号[中文字幕].Apollo.13.1995.2160p.HDR.UHD.BluRay.DTS-HD.MA.7.1.x265-10bit 21.99GB >> 正文

阿波罗13号[中文字幕].Apollo.13.1995.2160p.HDR.UHD.BluRay.DTS-HD.MA.7.1.x265-10bit 21.99GB

2021年09月02日 08:46:03     电影发布:来源于网络     电影分类:欧美电影     评论(0)    

阿波罗13号[中文字幕].Apollo.13.1995.2160p.HDR.UHD.BluRay.DTS HD.MA.7.1.x265 10bit 21.99GB 冒险片 历史 剧情片 欧美电影  第1张

◎译 名 阿波罗13号 / 太阳神13号(港) / 阿波罗十三

◎片 名 Apollo 13

◎年 代 1995

◎产 地 美国

◎类 别 剧情 / 历史 / 冒险

◎语 言 英语

◎上映日期 1995-06-30

◎IMDb链接 https://www.imdb.com/title/tt0112384/

◎豆瓣评分 8.1/10 (32087人评价)

◎豆瓣链接 https://movie.douban.com/subject/1293785/

◎片 长 140 分钟

◎导 演 朗·霍华德 Ron Howard (id:1031844)

◎编 剧 小威廉·保尔斯 William Broyles Jr. (id:1027610)

阿尔·赖纳特 Al Reinert (id:1295418)

吉姆·洛威尔 Jim Lovell (id:1115274)

杰弗里·克卢格 Jeffrey Kluger (id:1288737)

◎演 员 汤姆·汉克斯 Tom Hanks (id:1054450)

比尔·帕克斯顿 Bill Paxton (id:1048134)

凯文·贝肯 Kevin Bacon (id:1009260)

艾德·哈里斯 Ed Harris (id:1048024)

加里·西尼斯 Gary Sinise (id:1031848)

凯瑟琳·奎南 Kathleen Quinlan (id:1041161)

马里·凯特·舒切尔哈德特 Mary Kate Schellhardt (id:1140103)

艾米丽·安·劳埃德 Emily Ann Lloyd (id:1122576)

米克·休斯 Miko Hughes (id:1111867)

麦克斯·艾略特·斯莱德 Max Elliott Slade (id:1154452)

琼·斯皮格勒·霍华德 Jean Speegle Howard (id:1101417)

特雷西赖纳 Tracy Reiner (id:1138820)

马克·麦克卢尔 Marc McClure (id:1118597)

克里斯蒂安·克莱门松 Christian Clemenson (id:1032130)

布莱特·卡伦 Brett Cullen (id:1049693)

安迪·米尔德 Andy Milder (id:1125621)

Mark Wheeler (id:1268324)

山德·贝克利 Xander Berkeley (id:1036475)

肯特·卡斯帕 Kent Kasper (id:1432997)

杰弗里·布莱克 Geoffrey Blake (id:1066340)

雷·迈克金农 Ray McKinnon (id:1041216)

安德烈·胡勒斯 Endre Hules (id:1419978)

乔·斯帕诺 Joe Spano (id:1157259)

克里斯·埃里斯 Chris Ellis (id:1088482)

Todd Hallowell Todd Hallowell (id:1285874)

杰弗里·克卢格 Jeffrey Kluger (id:1288737)

布莱丝·达拉斯·霍华德 Bryce Dallas Howard (id:1027772)

Todd Hallowell Todd Hallowell (id:1285874)

Aldric La'Auli Porter Aldric La'Auli Porter (id:1294768)

布莱恩·格雷泽 Brian Grazer (id:1010703)

詹姆斯·霍纳 James Horner (id:1025277)

迈克·希尔 Mike Hill (id:1286636)

丹尼尔·P·汉利 Daniel P. Hanley (id:1285965)

珍妮特·希尔森 Janet Hirshenson (id:1286699)

大卫·J·博姆巴 David J. Bomba (id:1278919)

迈克尔·科伦布里斯 Michael Corenblith (id:1281278)

梅里迪斯·博斯维尔 Merideth Boswell (id:1279037)

丽塔·赖克 Rita Ryack (id:1296372)

Larry Abbott Larry Abbott (id:1276729)

哈泽尔·凯特穆尔 Hazel Catmull (id:1280294)

乔伊·萨帕塔 Joy Zapata (id:1301634)

Aldric La'Auli Porter Aldric La'Auli Porter (id:1294768)

布鲁斯·莫里亚蒂 Bruce Moriarty (id:1292506)

Todd Hallowell Todd Hallowell (id:1285874)

Jane Paul Jane Paul (id:1294110)

罗科·帕西尼诺 Rocco Passionino (id:1294053)

Eugene P. Rizzardi Eugene P. Rizzardi (id:1295729)

迈克尔·坎弗 Michael Kanfer (id:1288088)

布莱恩·吉尔 Bryan Grill (id:1285480)

乔·威斯科西尔 Joe Viskocil (id:1300123)

埃里克·纳什 Erik Nash (id:1292926)

马修·E·巴特勒 Matthew E. Butler (id:1279754)

马克·A·拉索夫 Mark A. Lasoff (id:1289472)

凯文·斯科特·麦克 Kevin Scott Mack (id:1290647)

西蒙·奥康纳 Simon O'Connor (id:1293392)

罗伯特·莱加托 Robert Legato (id:1289726)

詹姆斯·卡梅隆 James Cameron (id:1022571)

派特·迈克朗 Pat McClung (id:1291484)

◎标 签 美国 / 灾难 / 太空 / 剧情 / 阿波罗13号 / TomHanks / 1995 / 冒险

◎简 介

1969年7月20日,乘坐着阿波罗11号的美国人尼尔·阿姆斯特朗成功登陆月球,迈出对人类来说具有重要意义的一大步。与此同时,资深宇航员吉姆·洛维尔(汤姆·汉克斯 Tom Hanks 饰)和亲人好友们通过电视密切关注着这历史性的一刻。吉姆曾乘坐阿波罗8号飞到月球附近,他同样希望在有生之年实现登陆月球的梦想。这个时刻很快来临,就在3个月后,吉姆被任命为阿波罗13号的指挥官,他将连同伙伴佛瑞·德汉斯(比尔·帕克斯顿 Bill Paxton 饰)、杰克·史威吉特(凯文·贝肯 Kevin Bacon 饰)再次升空前往月球。他们满怀着希望,却没想到有无限的磨难等在前方……

本片根据真实事件改编,并荣获包括1996年奥斯卡金像奖最佳剪辑和最佳音效奖在内的20多个奖项。

◎获奖情况 (共19项)

第68届奥斯卡金像奖 (1996)

最佳影片(提名)

└──布莱恩·格雷泽 (id:1010703)

最佳男配角(提名)

└──艾德·哈里斯 (id:1048024)

最佳女配角(提名)

└──凯瑟琳·奎南 (id:1041161)

最佳改编剧本(提名)

最佳剪辑

最佳视觉效果(提名)

最佳音响

最佳艺术指导(提名)

剧情片最佳原创配乐(提名)

└──詹姆斯·霍纳 (id:1025277)

第53届金球奖 (1996)

电影类 最佳剧情片(提名)

电影类 最佳导演(提名)

└──朗·霍华德 (id:1031844)

电影类 最佳男配角(提名)

└──艾德·哈里斯 (id:1048024)

电影类 最佳女配角(提名)

└──凯瑟琳·奎南 (id:1041161)

第49届英国电影学院奖 (1996)

电影奖 最佳摄影(提名)

电影奖 最佳剪辑(提名)

电影奖 最佳艺术指导

└──迈克尔·科伦布里斯 (id:1281278)

电影奖 最佳特殊视觉效果

电影奖 最佳音效(提名)

第19届日本电影学院奖 (1996)

最佳外语片(提名)

  1. ##### MediaInfo ######

  2. General

  3. Unique ID : 270700080212477946522948754857924162514 (0xCBA6F0651DF73BD994A26BA957A6F3D2)

  4. Complete name : Apollo.13.1995.2160p.HDR.UHD.BluRay.DTS-HD.MA.7.1.x265-10bit-10007@BBQDDQ.COM.mkv

  5. Format : Matroska

  6. Format version : Version 4

  7. File size : 22.0 GiB

  8. Duration : 2 h 20 min

  9. Overall bit rate mode : Variable

  10. Overall bit rate : 22.4 Mb/s

  11. Movie name : Apollo 13 1995 2160p HDR UHD BluRay DTS-HD MA 7.1 x265-10bit-10007@BBQDDQ.COM

  12. Encoded date : UTC 2021-08-31 08:28:50

  13. Writing application : mkvmerge v38.0.0 ('The Silent Type') 64-bit

  14. Writing library : libebml v1.3.9 + libmatroska v1.5.2


  15. Video

  16. ID : 1

  17. Format : HEVC

  18. Format/Info : High Efficiency Video Coding

  19. Format profile : Main 10@L5.1@High

  20. HDR format : SMPTE ST 2086, HDR10 compatible

  21. Codec ID : V_MPEGH/ISO/HEVC

  22. Duration : 2 h 20 min

  23. Bit rate : 15.1 Mb/s

  24. Width : 3 840 pixels

  25. Height : 1 632 pixels

  26. Display aspect ratio : 2.35:1

  27. Frame rate mode : Constant

  28. Frame rate : 23.976 (24000/1001/53354) FPS

  29. Color space : YUV

  30. Chroma subsampling : 4:2:0

  31. Bit depth : 10 bits

  32. Bits/(Pixel*Frame) : 0.100

  33. Stream size : 14.8 GiB (67%)

  34. Title : @HDSky

  35. Writing library : x265 - H.265/HEVC codec

  36. Default : Yes

  37. Forced : No

  38. Color range : Limited

  39. Color primaries : BT.2020

  40. Transfer characteristics : PQ

  41. Matrix coefficients : BT.2020 non-constant

  42. Mastering display color primaries : Display P3

  43. Mastering display luminance : min: 0.0020 cd/m2, max: 1000 cd/m2

  44. Maximum Content Light Level : 739 cd/m2

  45. Maximum Frame-Average Light Level : 331 cd/m2


  46. Audio

  47. ID : 2

  48. Format : DTS XLL X

  49. Format/Info : Digital Theater Systems

  50. Commercial name : DTS-HD Master Audio

  51. Codec ID : A_DTS

  52. Duration : 2 h 20 min

  53. Bit rate mode : Variable

  54. Bit rate : 7 230 kb/s

  55. Channel(s) : 8 channels

  56. Channel(s)_Original : Object Based

  57. ChannelLayout_Original : Object Based

  58. Sampling rate : 48.0 kHz

  59. Frame rate : 93.750 FPS (512 SPF)

  60. Bit depth : 24 bits

  61. Stream size : 7.08 GiB (32%)

  62. Title : English

  63. Language : English

  64. Default : Yes

  65. Forced : No


  66. Text #1

  67. ID : 3

  68. Format : PGS

  69. Muxing mode : zlib

  70. Codec ID : S_HDMV/PGS

  71. Codec ID/Info : Picture based subtitle format used on BDs/HD-DVDs

  72. Duration : 2 h 13 min

  73. Bit rate : 52.3 kb/s

  74. Count of elements : 4270

  75. Stream size : 49.9 MiB (0%)

  76. Title : ENG

  77. Language : English

  78. Default : Yes

  79. Forced : No


  80. Text #2

  81. ID : 4

  82. Format : PGS

  83. Muxing mode : zlib

  84. Codec ID : S_HDMV/PGS

  85. Codec ID/Info : Picture based subtitle format used on BDs/HD-DVDs

  86. Duration : 2 h 13 min

  87. Bit rate : 44.3 kb/s

  88. Count of elements : 4555

  89. Stream size : 42.2 MiB (0%)

  90. Title : CHS

  91. Language : Chinese

  92. Default : No

  93. Forced : No


  94. Text #3

  95. ID : 5

  96. Format : PGS

  97. Muxing mode : zlib

  98. Codec ID : S_HDMV/PGS

  99. Codec ID/Info : Picture based subtitle format used on BDs/HD-DVDs

  100. Duration : 2 h 13 min

  101. Bit rate : 45.7 kb/s

  102. Count of elements : 4555

  103. Stream size : 43.6 MiB (0%)

  104. Title : CHT

  105. Language : Chinese

  106. Default : No

  107. Forced : No


  108. Text #4

  109. ID : 6

  110. Format : PGS

  111. Muxing mode : zlib

  112. Codec ID : S_HDMV/PGS

  113. Codec ID/Info : Picture based subtitle format used on BDs/HD-DVDs

  114. Duration : 2 h 13 min

  115. Bit rate : 76.8 kb/s

  116. Count of elements : 4577

  117. Stream size : 73.3 MiB (0%)

  118. Title : CHS&ENG

  119. Language : Chinese

  120. Default : No

  121. Forced : No


  122. Text #5

  123. ID : 7

  124. Format : PGS

  125. Muxing mode : zlib

  126. Codec ID : S_HDMV/PGS

  127. Codec ID/Info : Picture based subtitle format used on BDs/HD-DVDs

  128. Duration : 2 h 13 min

  129. Bit rate : 78.2 kb/s

  130. Count of elements : 4577

  131. Stream size : 74.6 MiB (0%)

  132. Title : CHT&ENG

  133. Language : Chinese

  134. Default : No

  135. Forced : No


  136. Menu

  137. 00:00:00.000 : en:Chapter 01

  138. 00:09:39.120 : en:Chapter 02

  139. 00:19:49.355 : en:Chapter 03

  140. 00:34:21.851 : en:Chapter 04

  141. 00:45:15.338 : en:Chapter 05

  142. 00:49:38.184 : en:Chapter 06

  143. 01:01:59.674 : en:Chapter 07

  144. 01:05:52.657 : en:Chapter 08

  145. 01:10:05.451 : en:Chapter 09

  146. 01:15:08.045 : en:Chapter 10

  147. 01:17:08.040 : en:Chapter 11

  148. 01:19:41.610 : en:Chapter 12

  149. 01:35:12.582 : en:Chapter 13

  150. 01:39:11.154 : en:Chapter 14

  151. 01:48:21.495 : en:Chapter 15

  152. 01:56:39.618 : en:Chapter 16

  153. 01:58:49.914 : en:Chapter 17

  154. 02:05:18.094 : en:Chapter 18

  155. 02:09:07.156 : en:Chapter 19

  156. 02:14:06.038 : en:Chapter 20


文件下载


除非特别注明,本文『阿波罗13号[中文字幕].Apollo.13.1995.2160p.HDR.UHD.BluRay.DTS-HD.MA.7.1.x265-10bit 21.99GB』来源于互联网机器人自动抓取,非本站原创。 浮游电影网不对本文拥有版权,如有侵犯,请联系邮箱:fuyouu#yandex.com[#换成@]投诉。我们会在15个工作日内删除。 但烦请转载时请标明出处:“本文转载于『浮游电影网』,原文地址:https://www.fuyouu.com/14136.html

评论吧骚年!

发表你的见解   

昵称*

E-mail*(建议输入,以便收到博主回复的提示邮件)

验证码*

您可以使用eMule或eMule Mod(Windows)、aMule(Win、Linux、Mac)等软件下载eD2k链接。。
eMule收藏集(.emulecollection)文件是您选中的所有链接的列表文件。eMule可以直接下载它们。
按住SHIFT键选择可以选中多个选择框。
可用文件名和大小选择器来选择文件。
文件名选择器帮您根据文件名称或后缀来选择文件。不分大小写。
符号使用:
和:空格( )、+
不包含:-
或:|
转义:一对英文引号("");
匹配开头:^
匹配结尾:$
例如:
选中所有名称中包含有“eMule”或“0.49c”字眼,但不包含有“exe”字眼的:emule|0.49c -exe
选中所有名称的开头是“eMule”,结尾是“0.49c”的:^emule 0.49c$
选中所有名称中带有“eMule 0.49c”的(必须是“eMule 0.49c”,中间没有别的字符,不能是“eMule fake 0.49c”),需要转义:"emule 0.49c"
大小选择器帮您根据文件大小选择文件。