当前位置: 首页 >> 港台电影 >> 猛鬼佛跳墙[国粤语配音/中文字幕].Bless.This.House.1988.1080p.BluRay.x265.10bit.DD.2.0.2Audio 4.92GB >> 正文

猛鬼佛跳墙[国粤语配音/中文字幕].Bless.This.House.1988.1080p.BluRay.x265.10bit.DD.2.0.2Audio 4.92GB

2021年09月02日 08:43:22     电影发布:来源于网络     电影分类:港台电影     评论(0)    

猛鬼佛跳墙[国粤语配音/中文字幕].Bless.This.House.1988.1080p.BluRay.x265.10bit.DD.2.0.2Audio 4.92GB 恐怖片 喜剧片 港台电影  第1张

◎译 名 猛鬼佛跳墙 / Bless This House

◎年 代 1988

◎产 地 中国香港

◎类 别 喜剧 / 恐怖

◎语 言 粤语 / 汉语普通话

◎上映日期 1988-03-30(中国香港)

◎IMDb链接 https://www.imdb.com/title/tt0095616/

◎豆瓣评分 6.8/10 (4797人评价)

◎豆瓣链接 https://movie.douban.com/subject/1295674/

◎片 长 79分钟

◎导 演 于仁泰 Ronny Yu (id:1301565)

◎编 剧 高志森 Clifton Ko (id:1281025)

马伟豪 Joe Ma (id:1290574)

吴沧洲 Chong Chau Ng (id:1293112)

阮世生 James Yuen (id:1023957)

◎演 员 董骠 Bill Tung (id:1274446)

狄波拉 Deborah Lee (id:1275560)

李丽珍 Loletta Lee (id:1016848)

何启南 Kai-Nam Ho (id:1286708)

梁小龙 Siu-Lung Leung (id:1274267)

韩坤 Victor Hon Kwan (id:1365336)

文隽 Manfred Wong (id:1274823)

王俊棠 Ricky Wong Chun-Tong (id:1321444)

陈卓欣 Chan Cheuk Yan (id:1349518)

翁子忠 Terence Yung (id:1431205)

史美仪 Mei-Yee Shut (id:1322479)

叶辉煌 Simon F.W. Yip (id:1366707)

伍国健 Kwok-kin Ng (id:1418713)

高志森 Clifton Ko (id:1281025)

何添 Tim Ho (id:1408607)

卢颖 Wing Lo (id:1419129)

温文杰 Derek Wan (id:1300398)

方盈 Ying Fang (id:1162628)

翁子忠 Terence Yung (id:1431205)

陈果 Fruit Chan (id:1000726)

◎标 签 恐怖 / 香港 / 香港电影 / 鬼片 / 李丽珍 / 董骠 / 惊悚 / 喜剧

◎简 介

建筑设计师骠叔(董骠 饰)在行业内辛勤工作二十年,最近因一单设计受到老板赏识,升迁之余,更获赠一幢山中别墅的使用权。骠叔与妻子(狄波拉 饰)兴高采烈的告别了拥挤的旧屋,携大女儿阿珍(李丽珍 饰)、阿珍男友大旧(何启南 饰)探访别墅,虽然家具需要重新添置、阿珍又在别墅中看到可疑的黑影,但难掩一家人的乔迁之喜。然而不久别墅中便发生众多可疑之事,凌乱的阁楼中似乎潜藏着对骠叔一家不怀好意的鬼魂,大旧请来的捉鬼专家被鬼物肆意整治后,骠叔欲为恶鬼拍照却被鬼上身,受恶鬼影响的骠叔愈发暴躁。在这一家人要将恶鬼生前的悲剧重演之时,住在附近的独眼道士(梁小龙 饰)出手相助……

  1. ##### MediaInfo ######

  2. General

  3. Unique ID : 109347216339144739225369546124656351603 (0x5243820108FE2E877A310EAB9F079973)

  4. Complete name : Bless.This.House.1988.1080p.BluRay.x265.10bit.DD.2.0.2Audio-10017@BBQDDQ.COM.mkv

  5. Format : Matroska

  6. Format version : Version 4

  7. File size : 4.91 GiB

  8. Duration : 1 h 23 min

  9. Overall bit rate : 8 451 kb/s

  10. Movie name : Bless.This.House

  11. Encoded date : UTC 2021-08-28 07:56:34

  12. Writing application : mkvmerge v51.0.0 ('I Wish') 64-bit

  13. Writing library : libebml v1.4.0 + libmatroska v1.6.2


  14. Video

  15. ID : 1

  16. Format : HEVC

  17. Format/Info : High Efficiency Video Coding

  18. Format profile : Main 10@L5@Main

  19. Codec ID : V_MPEGH/ISO/HEVC

  20. Duration : 1 h 23 min

  21. Bit rate : 7 649 kb/s

  22. Width : 1 920 pixels

  23. Height : 1 036 pixels

  24. Display aspect ratio : 1.85:1

  25. Frame rate mode : Constant

  26. Frame rate : 24.000 FPS

  27. Color space : YUV

  28. Chroma subsampling : 4:2:0

  29. Bit depth : 10 bits

  30. Bits/(Pixel*Frame) : 0.160

  31. Stream size : 4.45 GiB (91%)

  32. Writing library : x265 3.4+1-g07e3381df+31:[Windows][GCC 10.1.0][64 bit] Yuuki 10bit+8bit+12bit

  33. Encoding settings : rc=crf / crf=20.0000 / qcomp=0.60 / qpstep=4 / stats-write=0 / stats-read=0 / no-lossless / no-cu-lossless / aq-mode=1 / aq-strength=0.60 / cbqpoffs=0 / crqpoffs=0 / ipratio=1.40 / pbratio=1.30 / psy-rd=2.00 / psy-rdoq=0.00 / deblock=0:0 / ref=6 / limit-refs=1 / no-limit-modes / bframes=8 / b-adapt=2 / bframe-bias=0 / b-pyramid / b-intra / weightp / weightb / min-keyint=24 / max-keyint=240 / rc-lookahead=24 / gop-lookahead=0 / NTMzNTQ=uuDQuD2mJt9fsCf / scenecut=40 / hist-scenecut=0 / radl=0 / max-cu-size=64 / min-cu-size=8 / me=3 / subme=7 / merange=48 / rdoq-level=0 / rd=4 / rdpenalty=0 / dynamic-rd=0.00 / no-rd-refine / ----- / cutree / sao / no-rect / no-amp / no-open-gop / wpp / no-pmode / no-pme / no-psnr / no-ssim / nr-intra=0 / nr-inter=0 / no-constrained-intra / no-strong-intra-smoothing / max-tu-size=32 / tu-inter-depth=1 / tu-intra-depth=1 / limit-tu=0 / qg-size=32 / qpmax=69 / qpmin=0 / ----- / cpuid=533541111039 / frame-threads=3 / numa-pools=+ / log-level=2 / input-csp=1 / input-res=1920x1036 / interlace=0 / level-idc=0 / high-tier=1 / uhd-bd=0 / no-allow-non-conformance / no-repeat-headers / aud / no-hrd / info / hash=0 / no-temporal-layers / lookahead-slices=0 / no-splice / no-intra-refresh / no-ssim-rd / signhide / no-tskip / max-merge=3 / temporal-mvp / no-frame-dup / no-hme / no-analyze-src-pics / no-sao-non-deblock / selective-sao=4 / early-skip / rskip / no-fast-intra / no-tskip-fast / no-splitrd-skip / zone-count=0 / no-strict-cbr / no-rc-grain / no-const-vbv / sar=0 / overscan=0 / videoformat=5 / range=0 / colorprim=2 / transfer=2 / colormatrix=2 / chromaloc=0 / display-window=0 / cll=0,0 / min-luma=0 / max-luma=1023 / log2-max-poc-lsb=8 / vui-timing-info / vui-hrd-info / slices=1 / no-opt-qp-pps / no-opt-ref-list-length-pps / no-multi-pass-opt-rps / scenecut-bias=0.05 / hist-threshold=0.01 / no-opt-cu-delta-qp / no-aq-motion / no-hdr10 / no-hdr10-opt / no-dhdr10-opt / no-idr-recovery-sei / analysis-reuse-level=0 / analysis-save-reuse-level=0 / analysis-load-reuse-level=0 / scale-factor=0 / refine-intra=0 / refine-inter=0 / refine-mv=1 / refine-ctu-distortion=0 / no-limit-sao / ctu-info=0 / no-lowpass-dct / refine-analysis-type=0 / copy-pic=1 / max-ausize-factor=1.0 / no-dynamic-refine / no-single-sei / no-hevc-aq / no-svt / no-field / qp-adaptation-range=1.00 / no-scenecut-aware-qpconformance-window-offsets / right=0 / bottom=0 / NTMzNTQ= / decoder-max-rate=0

  34. Default : Yes

  35. Forced : No


  36. Audio #1

  37. ID : 2

  38. ID in the original source medium : 4353 (0x1101)

  39. Format : AC-3

  40. Format/Info : Audio Coding 3

  41. Commercial name : Dolby Digital

  42. Codec ID : A_AC3

  43. Duration : 1 h 23 min

  44. Bit rate mode : Constant

  45. Bit rate : 384 kb/s

  46. Channel(s) : 2 channels

  47. Channel layout : L R

  48. Sampling rate : 48.0 kHz

  49. Frame rate : 31.250 FPS (1536 SPF)

  50. Compression mode : Lossy

  51. Stream size : 229 MiB (5%)

  52. Title : Mandarin

  53. Language : Chinese

  54. Service kind : Complete Main

  55. Default : Yes

  56. Forced : No

  57. Original source medium : Blu-ray


  58. Audio #2

  59. ID : 3

  60. ID in the original source medium : 4352 (0x1100)

  61. Format : AC-3

  62. Format/Info : Audio Coding 3

  63. Commercial name : Dolby Digital

  64. Codec ID : A_AC3

  65. Duration : 1 h 23 min

  66. Bit rate mode : Constant

  67. Bit rate : 384 kb/s

  68. Channel(s) : 2 channels

  69. Channel layout : L R

  70. Sampling rate : 48.0 kHz

  71. Frame rate : 31.250 FPS (1536 SPF)

  72. Compression mode : Lossy

  73. Stream size : 229 MiB (5%)

  74. Title : Cantonese

  75. Language : Chinese

  76. Service kind : Complete Main

  77. Default : No

  78. Forced : No

  79. Original source medium : Blu-ray


  80. Text #1

  81. ID : 4

  82. ID in the original source medium : 4609 (0x1201)

  83. Format : PGS

  84. Muxing mode : zlib

  85. Codec ID : S_HDMV/PGS

  86. Codec ID/Info : Picture based subtitle format used on BDs/HD-DVDs

  87. Duration : 1 h 19 min

  88. Bit rate : 31.0 kb/s

  89. Count of elements : 1479

  90. Stream size : 17.7 MiB (0%)

  91. Title : chs

  92. Language : Chinese

  93. Default : Yes

  94. Forced : No

  95. Original source medium : Blu-ray


  96. Text #2

  97. ID : 5

  98. ID in the original source medium : 4608 (0x1200)

  99. Format : PGS

  100. Muxing mode : zlib

  101. Codec ID : S_HDMV/PGS

  102. Codec ID/Info : Picture based subtitle format used on BDs/HD-DVDs

  103. Duration : 1 h 19 min

  104. Bit rate : 31.8 kb/s

  105. Count of elements : 1479

  106. Stream size : 18.1 MiB (0%)

  107. Title : cht

  108. Language : Chinese

  109. Default : No

  110. Forced : No

  111. Original source medium : Blu-ray


  112. Text #3

  113. ID : 6

  114. ID in the original source medium : 4610 (0x1202)

  115. Format : PGS

  116. Muxing mode : zlib

  117. Codec ID : S_HDMV/PGS

  118. Codec ID/Info : Picture based subtitle format used on BDs/HD-DVDs

  119. Duration : 1 h 19 min

  120. Bit rate : 31.6 kb/s

  121. Count of elements : 1481

  122. Stream size : 18.1 MiB (0%)

  123. Title : eng

  124. Language : English

  125. Default : No

  126. Forced : No

  127. Original source medium : Blu-ray


  128. Menu

  129. 00:00:00.000 : en:第 01 章

  130. 00:08:06.375 : en:第 02 章

  131. 00:15:15.708 : en:第 03 章

  132. 00:21:01.375 : en:第 04 章

  133. 00:27:13.333 : en:第 05 章

  134. 00:33:55.458 : en:第 06 章

  135. 00:40:49.208 : en:第 07 章

  136. 00:49:03.416 : en:第 08 章

  137. 00:56:41.458 : en:第 09 章

  138. 01:01:32.291 : en:第 10 章

  139. 01:09:12.666 : en:第 11 章

  140. 01:14:29.750 : en:第 12 章



文件下载


除非特别注明,本文『猛鬼佛跳墙[国粤语配音/中文字幕].Bless.This.House.1988.1080p.BluRay.x265.10bit.DD.2.0.2Audio 4.92GB』来源于互联网机器人自动抓取,非本站原创。 浮游电影网不对本文拥有版权,如有侵犯,请联系邮箱:fuyouu#yandex.com[#换成@]投诉。我们会在15个工作日内删除。 但烦请转载时请标明出处:“本文转载于『浮游电影网』,原文地址:https://www.fuyouu.com/14134.html

评论吧骚年!

发表你的见解   

昵称*

E-mail*(建议输入,以便收到博主回复的提示邮件)

验证码*

您可以使用eMule或eMule Mod(Windows)、aMule(Win、Linux、Mac)等软件下载eD2k链接。。
eMule收藏集(.emulecollection)文件是您选中的所有链接的列表文件。eMule可以直接下载它们。
按住SHIFT键选择可以选中多个选择框。
可用文件名和大小选择器来选择文件。
文件名选择器帮您根据文件名称或后缀来选择文件。不分大小写。
符号使用:
和:空格( )、+
不包含:-
或:|
转义:一对英文引号("");
匹配开头:^
匹配结尾:$
例如:
选中所有名称中包含有“eMule”或“0.49c”字眼,但不包含有“exe”字眼的:emule|0.49c -exe
选中所有名称的开头是“eMule”,结尾是“0.49c”的:^emule 0.49c$
选中所有名称中带有“eMule 0.49c”的(必须是“eMule 0.49c”,中间没有别的字符,不能是“eMule fake 0.49c”),需要转义:"emule 0.49c"
大小选择器帮您根据文件大小选择文件。