当前位置: 首页 >> 欧美电影 >> 龙卷风[中文字幕].Twister.1996.1080p.BluRay.TrueHD.7.1.Atmos.x265-10bit 10.70GB >> 正文

龙卷风[中文字幕].Twister.1996.1080p.BluRay.TrueHD.7.1.Atmos.x265-10bit 10.70GB

2021年09月02日 08:40:14     电影发布:来源于网络     电影分类:欧美电影     评论(0)    

龙卷风[中文字幕].Twister.1996.1080p.BluRay.TrueHD.7.1.Atmos.x265 10bit 10.70GB 灾难片 冒险片 动作片 欧美电影  第1张

◎译 名 龙卷风 / 龙卷风暴(港)

◎片 名 Twister

◎年 代 1996

◎产 地 美国

◎类 别 动作 / 冒险 / 灾难

◎语 言 英语

◎上映日期 1996-05-10

◎IMDb链接 https://www.imdb.com/title/tt0117998/

◎豆瓣评分 7.3/10 (27511人评价)

◎豆瓣链接 https://movie.douban.com/subject/1292454/

◎片 长 113 分钟

◎导 演 扬·德·邦特 Jan de Bont (id:1056008)

◎编 剧 迈克尔·克莱顿 Michael Crichton (id:1027340)

安妮-玛丽·马丁 Anne-Marie Martin (id:1040813)

◎演 员 海伦·亨特 Helen Hunt (id:1019017)

比尔·帕克斯顿 Bill Paxton (id:1048134)

加利·艾尔维斯 Cary Elwes (id:1040521)

杰米·格尔兹 Jami Gertz (id:1040528)

菲利普·塞默·霍夫曼 Philip Seymour Hoffman (id:1054394)

罗伊丝·史密斯 Lois Smith (id:1151084)

阿兰·卢克 Alan Ruck (id:1010547)

西恩·瓦兰 Sean Whalen (id:1048211)

斯科特·汤姆森 Scott Thomson (id:1160046)

托德·菲尔德 Todd Field (id:1032123)

乔伊·斯洛特尼克 Joey Slotnick (id:1152200)

杰瑞米·戴维斯 Jeremy Davies (id:1027205)

扎克·格雷尼尔 Zach Grenier (id:1099400)

派特里克·费斯克勒 Patrick Fischler (id:1084105)

尼古拉斯·萨德勒 Nicholas Sadler (id:1373961)

本·韦伯 Ben Weber (id:1161619)

安东尼·拉普 Anthony Rapp (id:1040545)

埃里克·拉雷·哈维 Erik LaRay Harvey (id:1387220)

亚布拉哈姆·本鲁比 Abraham Benrubi (id:1027238)

杰克·布塞 Jake Busey (id:1017996)

拉丝蒂·休默 Rusty Schwimmer (id:1276532)

阿丽夏·维加 Alexa Vega (id:1049505)

达里尔·考克斯 Darryl Cox (id:1068706)

Ben Jackson Ben Jackson (id:1021712)

劳里·麦克唐纳 Laurie MacDonald (id:1290620)

伊安·布莱斯 Ian Bryce (id:1279526)

凯瑟琳·肯尼迪 Kathleen Kennedy (id:1019168)

史蒂文·斯皮尔伯格 Steven Spielberg (id:1054440)

里萨·布雷蒙·加西亚 Risa Bramon Garcia (id:1284503)

约瑟夫·C·内梅克三世 Joseph C. Nemec III (id:1293045)

艾伦·米罗伊尼克 Ellen Mirojnick (id:1010099)

金·桑坦托尼奥 Kim Santantonio (id:1296669)

Matthew Carlisle Matthew Carlisle (id:1280102)

Michael Conte Michael Conte (id:1281172)

Patrick T. Myers Patrick T. Myers (id:1292827)

Scott Frankel Scott Frankel (id:1284099)

本·斯诺 Ben Snow (id:1297983)

杰拉德·古施密特 Gerald Gutschmidt (id:1285687)

迈克尔·哈尔斯特德 Michael J. Halsted (id:1285887)

Guy Hudson Guy Hudson (id:1287083)

Marshall Richard Krasser Marshall Richard Krasser (id:1288991)

亨利·拉伯塔 Henry LaBounta (id:1289197)

林凡 Van Ling (id:1290113)

詹姆斯·托利 James Tooley (id:1299390)

Kim Bromley Kim Bromley (id:1279373)

托马斯·罗塞特 Thomas Rosseter (id:1296146)

Eddie Pasquarello Eddie Pasquarello (id:1294043)

肯尼斯·史密斯 Kenneth Smith (id:1297900)

Sam Nicholson Sam Nicholson (id:1293152)

罗杰·盖耶特 Roger Guyett (id:1276493)

R·克里斯托弗·怀特 R. Christopher White (id:1300813)

乔恩·亚历山大 Jon Alexander (id:1276987)

Dugan Beach Dugan Beach (id:1278146)

芭芭拉·布伦南 Barbara Brennan (id:1279246)

杰克·莫多万 Jack Mongovan (id:1292344)

理查德·金 Richard King (id:1288602)

◎标 签 灾难 / 美国 / 美国电影 / 科幻 / 龙卷风 / 灾难片 / 1996 / 电影

◎简 介

龙卷风的暴戾和神秘吸引了大批科学家的深入研究,深入风暴中间是最危险的行为,但亦是探索龙卷风最有效的方法。乔(海伦·亨特 Helen Hunt饰)和离婚的丈夫比尔(比尔·帕克斯顿 Bill Paxton饰)就是这类“与龙共舞”的科学家,即使他们感情已经破裂,比尔也已找到新的恋人,但出于对龙卷风研究的痴迷,他们还是决定共同追逐一场俄克拉何马州的飓风,并把新研制成功的探测仪“多萝西”放到龙卷风中心收集数据。

他们驾驶着破旧的货车,带领着追风队,向最危险的地方进发。同时,另一队装备精良的人马也朝着这个方向驶去,由裘纳(加利·艾尔维斯 Cary Elwes饰)领队,在追风行动中和乔激励较劲。

一边是志同道合的乔,一边是畏惧惊险生活的新女友,比尔在追风过程中如何重新抉择自己的感情道路?更重要的是,面对实力雄厚的对手,和随时葬身其中的龙卷风,乔和比尔如何实现自己的...

◎获奖情况 (共2项)

第69届奥斯卡金像奖 (1997)

最佳视觉效果(提名)

最佳音响(提名)

  1. ##### MediaInfo ######

  2. General

  3. Unique ID : 200499049534065375364835318475021264822 (0x96D6B65B61E009042E50C43B6186A7B6)

  4. Complete name : Twister.1996.1080p.BluRay.TrueHD.7.1.Atmos.x265-10bit-10007@BBQDDQ.COM.mkv

  5. Format : Matroska

  6. Format version : Version 4

  7. File size : 10.7 GiB

  8. Duration : 1 h 52 min

  9. Overall bit rate mode : Variable

  10. Overall bit rate : 13.6 Mb/s

  11. Movie name : Twister 1996 1080p BluRay TrueHD 7.1 Atmos x264-10007@BBQDDQ.COM

  12. Encoded date : UTC 2021-08-31 14:09:13

  13. Writing application : mkvmerge v38.0.0 ('The Silent Type') 64-bit

  14. Writing library : libebml v1.3.9 + libmatroska v1.5.2


  15. Video

  16. ID : 1

  17. Format : HEVC

  18. Format/Info : High Efficiency Video Coding

  19. Format profile : Main 10@L5.1@High

  20. Codec ID : V_MPEGH/ISO/HEVC

  21. Duration : 1 h 52 min

  22. Bit rate : 8 184 kb/s

  23. Width : 1 920 pixels

  24. Height : 792 pixels

  25. Display aspect ratio : 2.40:1

  26. Frame rate mode : Constant

  27. Frame rate : 23.976 (24000/1001/53354) FPS

  28. Color space : YUV

  29. Chroma subsampling : 4:2:0

  30. Bit depth : 10 bits

  31. Bits/(Pixel*Frame) : 0.224

  32. Stream size : 6.46 GiB (60%)

  33. Title : @HDSky

  34. Writing library : x265 - H.265/HEVC codec

  35. Encoding settings : lslices=4 / deblock(tC=-1:B=-1)

  36. Language : English

  37. Default : Yes

  38. Forced : No


  39. Audio #1

  40. ID : 2

  41. Format : MLP FBA 16-ch

  42. Format/Info : Meridian Lossless Packing FBA with 16-channel presentation

  43. Commercial name : Dolby TrueHD with Dolby Atmos

  44. Codec ID : A_TRUEHD

  45. Duration : 1 h 52 min

  46. Bit rate mode : Variable

  47. Bit rate : 3 867 kb/s

  48. Maximum bit rate : 6 732 kb/s

  49. Channel(s) : 8 channels

  50. Channel layout : L R C LFE Ls Rs Lb Rb

  51. Sampling rate : 48.0 kHz

  52. Frame rate : 1 200.000 FPS (40 SPF)

  53. Compression mode : Lossless

  54. Delay relative to video : 1 s 1 ms

  55. Stream size : 3.05 GiB (29%)

  56. Title : English

  57. Language : English

  58. Default : Yes

  59. Forced : No

  60. Number of dynamic objects : 13

  61. Bed channel count : 1 channel

  62. Bed channel configuration : LFE


  63. Audio #2

  64. ID : 3

  65. Format : AC-3

  66. Format/Info : Audio Coding 3

  67. Commercial name : Dolby Digital

  68. Codec ID : A_AC3

  69. Duration : 1 h 52 min

  70. Bit rate mode : Constant

  71. Bit rate : 640 kb/s

  72. Channel(s) : 6 channels

  73. Channel layout : L R C LFE Ls Rs

  74. Sampling rate : 48.0 kHz

  75. Frame rate : 31.250 FPS (1536 SPF)

  76. Compression mode : Lossy

  77. Delay relative to video : 1 s 1 ms

  78. Stream size : 517 MiB (5%)

  79. Title : English

  80. Language : English

  81. Service kind : Complete Main

  82. Default : No

  83. Forced : No


  84. Audio #3

  85. ID : 4

  86. Format : DTS

  87. Format/Info : Digital Theater Systems

  88. Codec ID : A_DTS

  89. Duration : 1 h 52 min

  90. Bit rate mode : Constant

  91. Bit rate : 768 kb/s

  92. Channel(s) : 2 channels

  93. Channel layout : Lt Rt

  94. Sampling rate : 48.0 kHz

  95. Frame rate : 93.750 FPS (512 SPF)

  96. Bit depth : 24 bits

  97. Compression mode : Lossy

  98. Stream size : 620 MiB (6%)

  99. Title : English

  100. Language : English

  101. Default : No

  102. Forced : No


  103. Text #1

  104. ID : 5

  105. Format : PGS

  106. Muxing mode : zlib

  107. Codec ID : S_HDMV/PGS

  108. Codec ID/Info : Picture based subtitle format used on BDs/HD-DVDs

  109. Duration : 1 h 44 min

  110. Bit rate : 36.2 kb/s

  111. Count of elements : 2690

  112. Stream size : 27.0 MiB (0%)

  113. Title : ENG

  114. Language : English

  115. Default : Yes

  116. Forced : No


  117. Text #2

  118. ID : 6

  119. Format : PGS

  120. Muxing mode : zlib

  121. Codec ID : S_HDMV/PGS

  122. Codec ID/Info : Picture based subtitle format used on BDs/HD-DVDs

  123. Duration : 1 h 46 min

  124. Bit rate : 22.4 kb/s

  125. Count of elements : 2975

  126. Stream size : 17.1 MiB (0%)

  127. Title : CHS

  128. Language : Chinese

  129. Default : No

  130. Forced : No


  131. Text #3

  132. ID : 7

  133. Format : PGS

  134. Muxing mode : zlib

  135. Codec ID : S_HDMV/PGS

  136. Codec ID/Info : Picture based subtitle format used on BDs/HD-DVDs

  137. Duration : 1 h 46 min

  138. Bit rate : 23.7 kb/s

  139. Count of elements : 2975

  140. Stream size : 18.0 MiB (0%)

  141. Title : CHT

  142. Language : Chinese

  143. Default : No

  144. Forced : No


  145. Menu

  146. 00:00:00.000 : en:Chapter 01

  147. 00:04:51.415 : en:Chapter 02

  148. 00:09:01.123 : en:Chapter 03

  149. 00:13:14.876 : en:Chapter 04

  150. 00:18:53.632 : en:Chapter 05

  151. 00:24:31.970 : en:Chapter 06

  152. 00:29:32.811 : en:Chapter 07

  153. 00:35:55.902 : en:Chapter 08

  154. 00:41:33.782 : en:Chapter 09

  155. 00:45:08.204 : en:Chapter 10

  156. 00:52:42.324 : en:Chapter 11

  157. 00:58:07.150 : en:Chapter 12

  158. 01:02:11.811 : en:Chapter 13

  159. 01:05:39.643 : en:Chapter 14

  160. 01:10:18.296 : en:Chapter 15

  161. 01:15:12.381 : en:Chapter 16

  162. 01:18:14.064 : en:Chapter 17

  163. 01:25:46.224 : en:Chapter 18

  164. 01:31:34.404 : en:Chapter 19

  165. 01:35:47.408 : en:Chapter 20

  166. 01:38:37.243 : en:Chapter 21

  167. 01:41:26.997 : en:Chapter 22

  168. 01:43:34.917 : en:Chapter 23

  169. 01:45:52.845 : en:Chapter 24


文件下载


除非特别注明,本文『龙卷风[中文字幕].Twister.1996.1080p.BluRay.TrueHD.7.1.Atmos.x265-10bit 10.70GB』来源于互联网机器人自动抓取,非本站原创。 浮游电影网不对本文拥有版权,如有侵犯,请联系邮箱:fuyouu#yandex.com[#换成@]投诉。我们会在15个工作日内删除。 但烦请转载时请标明出处:“本文转载于『浮游电影网』,原文地址:https://www.fuyouu.com/14132.html

评论吧骚年!

发表你的见解   

昵称*

E-mail*(建议输入,以便收到博主回复的提示邮件)

验证码*

您可以使用eMule或eMule Mod(Windows)、aMule(Win、Linux、Mac)等软件下载eD2k链接。。
eMule收藏集(.emulecollection)文件是您选中的所有链接的列表文件。eMule可以直接下载它们。
按住SHIFT键选择可以选中多个选择框。
可用文件名和大小选择器来选择文件。
文件名选择器帮您根据文件名称或后缀来选择文件。不分大小写。
符号使用:
和:空格( )、+
不包含:-
或:|
转义:一对英文引号("");
匹配开头:^
匹配结尾:$
例如:
选中所有名称中包含有“eMule”或“0.49c”字眼,但不包含有“exe”字眼的:emule|0.49c -exe
选中所有名称的开头是“eMule”,结尾是“0.49c”的:^emule 0.49c$
选中所有名称中带有“eMule 0.49c”的(必须是“eMule 0.49c”,中间没有别的字符,不能是“eMule fake 0.49c”),需要转义:"emule 0.49c"
大小选择器帮您根据文件大小选择文件。