当前位置: 首页 >> 欧美电影 >> 比利·林恩的中场战事[国语配音/中文字幕].Billy.Lynn's.Long.Halftime.Walk.2016.2160p.HFR.UHD.BluRay 22.61GB >> 正文

比利·林恩的中场战事[国语配音/中文字幕].Billy.Lynn's.Long.Halftime.Walk.2016.2160p.HFR.UHD.BluRay 22.61GB

2021年09月02日 08:35:50     电影发布:来源于网络     电影分类:欧美电影     评论(0)    

比利·林恩的中场战事[国语配音/中文字幕].Billy.Lynns.Long.Halftime.Walk.2016.2160p.HFR.UHD.BluRay 22.61GB 战争片 剧情片 欧美电影  第1张

◎译 名 比利·林恩的中场战事 / 半场无战事 / 比利·林恩漫长的中场休息 / 比利·林漫长的中场行走 / 中场休息

◎片 名 Billy Lynn's Long Halftime Walk

◎年 代 2016

◎产 地 美国 / 英国 / 中国大陆

◎类 别 剧情 / 战争

◎语 言 英语

◎上映日期 2016-11-11(中国大陆) / 2016-10-14(纽约电影节) / 2016-11-18(美国)

◎IMDb链接 https://www.imdb.com/title/tt2513074/

◎豆瓣评分 8.3/10 (349622人评价)

◎豆瓣链接 https://movie.douban.com/subject/25983044/

◎片 长 113分钟

◎导 演 李安 Ang Lee (id:1054421)

◎编 剧 让-克里斯托弗·卡斯特里 Jean-Christophe Castelli (id:1363186)

本·方丹 Ben Fountain (id:1357807)

◎演 员 乔·阿尔文 Joe Alwyn (id:1348117)

加内特·赫德兰 Garrett Hedlund (id:1047958)

克里斯汀·斯图尔特 Kristen Stewart (id:1012533)

范·迪塞尔 Vin Diesel (id:1041020)

李淳 Mason Lee (id:1316450)

麦肯兹·利 Makenzie Leigh (id:1344998)

史蒂夫·马丁 Steve Martin (id:1022595)

克里斯·塔克 Chris Tucker (id:1049514)

本·普拉特 Ben Platt (id:1328012)

阿图罗·卡斯特罗 Arturo Castro (id:1364652)

亚斯特罗 Astro (id:1341260)

博·纳普 Beau Knapp (id:1342556)

伊斯梅尔·克鲁斯·科尔多瓦 Ismael Cruz Cordova (id:1268960)

巴尼·哈里斯 Barney Harris (id:1357909)

布鲁斯·麦金农 Bruce McKinnon (id:1364653)

迪尔德丽·罗夫乔 Deirdre Lovejoy (id:1125327)

劳拉·兰迪 Laura Lundy (id:1390151)

艾伦·丹尼尔 Allen Daniel (id:1390152)

兰迪·冈萨雷斯 Randy Gonzalez (id:1390153)

蒂姆·布雷克·尼尔森 Tim Blake Nelson (id:1048166)

克里斯托弗·马修·库克 Christopher Matthew Cook (id:1352714)

法耶尔·阿尔-凯斯 Fajer Al-Kaisi (id:1230212)

乔顿卡尔文 Jordanne Calvin (id:1368099)

吉纳维芙亚当斯 Genevieve Adams (id:1366444)

凯利·皮克勒 Kellie Pickler (id:1009509)

波·米切尔 Bo Mitchell (id:1185323)

杰伊·彼得森 Jay Peterson (id:1460405)

马克·普拉特 Marc Platt (id:1294606)

杰夫·罗宾诺夫 Jeff Robinov (id:1409086)

李安 Ang Lee (id:1054421)

麦切尔·丹纳 Mychael Danna (id:1050402)

杰夫·丹纳 Jeff Danna (id:1276509)

约翰·托尔 John Toll (id:1276189)

蒂姆·斯奎尔斯 Tim Squyres (id:1298208)

◎标 签 战争 / 美国 / 人性 / 剧情 / 成长 / 2016 / 120帧 / 小说改编

◎简 介

伊拉克战争时期,来自美国德州的19岁技术兵比利·林恩(乔·阿尔文 Joe Alwyn 饰)因为一段偶然拍摄的视频而家喻户晓。那是一次规模不大却激烈非常的遭遇战,战斗中林恩所在的B班班长(范·迪塞尔 Vin Diesel 饰)遭到当地武装分子的伏击和劫持,而林恩为了营救班长不惜铤而走险冲锋陷阵。视频公布于世让他成为全美民众所崇拜的英雄,然而却鲜有人理解他和战友们所经历的一切。为了安葬班长,B班得到了短暂的休假,因此他们得以受邀参加一场在德州举行的橄榄球比赛。林恩的姐姐因某事件深感愧疚,她希望弟弟能借此机缘回归普通生活。而周围的经纪人、球迷、大老板、普通民众则对战争、卫国、士兵有着各种各样想当然的理解。球场上的庆典盛大开幕,林恩和战友们的心却愈加沉重与焦躁……

本片根据作家本·方丹(Ben Fountain)的同名小说改编。

◎获奖情况 (共7项)

第21届金卫星奖 (2017)

电影部门 最佳摄影(提名)

└──约翰·托尔 (id:1276189)

电影部门 最佳视觉效果(提名)

└──马克·O·福克 (id:1042881)

电影部门 最佳剪辑(提名)

└──蒂姆·斯奎尔斯 (id:1298208)

电影部门 最佳音效(提名)

第20届好莱坞电影奖 (2016)

年度配乐

└──麦切尔·丹纳 (id:1050402)

第3届豆瓣电影年度榜单 (2016)

评分最高的外语电影(提名)

11月最受关注电影(提名)

  1. ##### MediaInfo ######

  2. General

  3. Unique ID : 197018625641891336073960987954943271590 (0x94386835E87F5216873548DD8856A2A6)

  4. Complete name : Billy.Lynns.Long.Halftime.Walk.2016.2160p.HFR.UHD.BluRay.TrueHD.7.1.Atmos.2Audio.x265-10bit-10007@BBQDDQ.COM.mkv

  5. Format : Matroska

  6. Format version : Version 4

  7. File size : 22.6 GiB

  8. Duration : 1 h 52 min

  9. Overall bit rate mode : Variable

  10. Overall bit rate : 28.7 Mb/s

  11. Movie name : Billy Lynns Long Halftime Walk 2016 2160p HDR UHD BluRay TrueHD 7.1 Atmos 2Audio x265-10bit-10007@BBQDDQ.COM

  12. Encoded date : UTC 2021-08-31 14:16:30

  13. Writing application : mkvmerge v38.0.0 ('The Silent Type') 64-bit

  14. Writing library : libebml v1.3.9 + libmatroska v1.5.2


  15. Video

  16. ID : 1

  17. Format : HEVC

  18. Format/Info : High Efficiency Video Coding

  19. Format profile : Main 10@L5.1@High

  20. HDR format : SMPTE ST 2086, HDR10 compatible

  21. Codec ID : V_MPEGH/ISO/HEVC

  22. Duration : 1 h 52 min

  23. Bit rate : 22.9 Mb/s

  24. Width : 3 840 pixels

  25. Height : 2 072 pixels

  26. Display aspect ratio : 1.85:1

  27. Frame rate mode : Constant

  28. Frame rate : 59.940 (60000/1001/53354) FPS

  29. Color space : YUV

  30. Chroma subsampling : 4:2:0

  31. Bit depth : 10 bits

  32. Bits/(Pixel*Frame) : 0.048

  33. Stream size : 18.0 GiB (80%)

  34. Title : @HDSky

  35. Writing library : x265 - H.265/HEVC codec

  36. Default : Yes

  37. Forced : No

  38. Color range : Limited

  39. Color primaries : BT.2020

  40. Transfer characteristics : PQ

  41. Matrix coefficients : BT.2020 non-constant

  42. Mastering display color primaries : Display P3

  43. Mastering display luminance : min: 0.0020 cd/m2, max: 1000 cd/m2

  44. Maximum Content Light Level : 739 cd/m2

  45. Maximum Frame-Average Light Level : 331 cd/m2


  46. Audio #1

  47. ID : 2

  48. Format : MLP FBA 16-ch

  49. Format/Info : Meridian Lossless Packing FBA with 16-channel presentation

  50. Commercial name : Dolby TrueHD with Dolby Atmos

  51. Codec ID : A_TRUEHD

  52. Duration : 1 h 52 min

  53. Bit rate mode : Variable

  54. Bit rate : 4 024 kb/s

  55. Maximum bit rate : 8 145 kb/s

  56. Channel(s) : 8 channels

  57. Channel layout : L R C LFE Ls Rs Lb Rb

  58. Sampling rate : 48.0 kHz

  59. Frame rate : 1 200.000 FPS (40 SPF)

  60. Compression mode : Lossless

  61. Stream size : 3.17 GiB (14%)

  62. Title : English

  63. Language : English

  64. Default : Yes

  65. Forced : No

  66. Number of dynamic objects : 11

  67. Bed channel count : 1 channel

  68. Bed channel configuration : LFE


  69. Audio #2

  70. ID : 3

  71. Format : DTS

  72. Format/Info : Digital Theater Systems

  73. Codec ID : A_DTS

  74. Duration : 1 h 52 min

  75. Bit rate mode : Constant

  76. Bit rate : 1 509 kb/s

  77. Channel(s) : 6 channels

  78. Channel layout : C L R Ls Rs LFE

  79. Sampling rate : 48.0 kHz

  80. Frame rate : 93.750 FPS (512 SPF)

  81. Bit depth : 24 bits

  82. Compression mode : Lossy

  83. Stream size : 1.19 GiB (5%)

  84. Title : Mandarin

  85. Language : Chinese

  86. Default : No

  87. Forced : No


  88. Text #1

  89. ID : 4

  90. Format : PGS

  91. Muxing mode : zlib

  92. Codec ID : S_HDMV/PGS

  93. Codec ID/Info : Picture based subtitle format used on BDs/HD-DVDs

  94. Duration : 1 h 45 min

  95. Bit rate : 77.4 kb/s

  96. Count of elements : 4318

  97. Stream size : 58.6 MiB (0%)

  98. Title : ENG

  99. Language : English

  100. Default : Yes

  101. Forced : No


  102. Text #2

  103. ID : 5

  104. Format : PGS

  105. Muxing mode : zlib

  106. Codec ID : S_HDMV/PGS

  107. Codec ID/Info : Picture based subtitle format used on BDs/HD-DVDs

  108. Duration : 1 h 50 min

  109. Bit rate : 43.2 kb/s

  110. Count of elements : 3535

  111. Stream size : 34.2 MiB (0%)

  112. Title : CHS

  113. Language : Chinese

  114. Default : No

  115. Forced : No


  116. Text #3

  117. ID : 6

  118. Format : PGS

  119. Muxing mode : zlib

  120. Codec ID : S_HDMV/PGS

  121. Codec ID/Info : Picture based subtitle format used on BDs/HD-DVDs

  122. Duration : 1 h 50 min

  123. Bit rate : 48.0 kb/s

  124. Count of elements : 3863

  125. Stream size : 38.0 MiB (0%)

  126. Title : CHT

  127. Language : Chinese

  128. Default : No

  129. Forced : No


  130. Text #4

  131. ID : 7

  132. Format : PGS

  133. Muxing mode : zlib

  134. Codec ID : S_HDMV/PGS

  135. Codec ID/Info : Picture based subtitle format used on BDs/HD-DVDs

  136. Duration : 1 h 45 min

  137. Bit rate : 42.4 kb/s

  138. Count of elements : 3920

  139. Stream size : 32.0 MiB (0%)

  140. Title : CHS

  141. Language : Chinese

  142. Default : No

  143. Forced : No


  144. Text #5

  145. ID : 8

  146. Format : PGS

  147. Muxing mode : zlib

  148. Codec ID : S_HDMV/PGS

  149. Codec ID/Info : Picture based subtitle format used on BDs/HD-DVDs

  150. Duration : 1 h 45 min

  151. Bit rate : 43.3 kb/s

  152. Count of elements : 3920

  153. Stream size : 32.6 MiB (0%)

  154. Title : CHT

  155. Language : Chinese

  156. Default : No

  157. Forced : No


  158. Text #6

  159. ID : 9

  160. Format : PGS

  161. Muxing mode : zlib

  162. Codec ID : S_HDMV/PGS

  163. Codec ID/Info : Picture based subtitle format used on BDs/HD-DVDs

  164. Duration : 1 h 45 min

  165. Bit rate : 77.0 kb/s

  166. Count of elements : 3920

  167. Stream size : 58.0 MiB (0%)

  168. Title : CHS&ENG

  169. Language : Chinese

  170. Default : No

  171. Forced : No


  172. Text #7

  173. ID : 10

  174. Format : PGS

  175. Muxing mode : zlib

  176. Codec ID : S_HDMV/PGS

  177. Codec ID/Info : Picture based subtitle format used on BDs/HD-DVDs

  178. Duration : 1 h 45 min

  179. Bit rate : 77.8 kb/s

  180. Count of elements : 3920

  181. Stream size : 58.7 MiB (0%)

  182. Title : CHT&ENG

  183. Language : Chinese

  184. Default : No

  185. Forced : No


  186. Menu

  187. 00:00:00.000 : en:Chapter 01

  188. 00:06:05.848 : en:Chapter 02

  189. 00:13:21.884 : en:Chapter 03

  190. 00:20:11.210 : en:Chapter 04

  191. 00:26:24.531 : en:Chapter 05

  192. 00:31:10.484 : en:Chapter 06

  193. 00:39:05.393 : en:Chapter 07

  194. 00:48:51.929 : en:Chapter 08

  195. 00:55:58.588 : en:Chapter 09

  196. 01:04:18.336 : en:Chapter 10

  197. 01:10:16.679 : en:Chapter 11

  198. 01:17:14.212 : en:Chapter 12

  199. 01:22:08.472 : en:Chapter 13

  200. 01:29:13.264 : en:Chapter 14

  201. 01:35:21.582 : en:Chapter 15

  202. 01:42:52.431 : en:Chapter 16


文件下载


除非特别注明,本文『比利·林恩的中场战事[国语配音/中文字幕].Billy.Lynn's.Long.Halftime.Walk.2016.2160p.HFR.UHD.BluRay 22.61GB』来源于互联网机器人自动抓取,非本站原创。 浮游电影网不对本文拥有版权,如有侵犯,请联系邮箱:fuyouu#yandex.com[#换成@]投诉。我们会在15个工作日内删除。 但烦请转载时请标明出处:“本文转载于『浮游电影网』,原文地址:https://www.fuyouu.com/14129.html

评论吧骚年!

发表你的见解   

昵称*

E-mail*(建议输入,以便收到博主回复的提示邮件)

验证码*

您可以使用eMule或eMule Mod(Windows)、aMule(Win、Linux、Mac)等软件下载eD2k链接。。
eMule收藏集(.emulecollection)文件是您选中的所有链接的列表文件。eMule可以直接下载它们。
按住SHIFT键选择可以选中多个选择框。
可用文件名和大小选择器来选择文件。
文件名选择器帮您根据文件名称或后缀来选择文件。不分大小写。
符号使用:
和:空格( )、+
不包含:-
或:|
转义:一对英文引号("");
匹配开头:^
匹配结尾:$
例如:
选中所有名称中包含有“eMule”或“0.49c”字眼,但不包含有“exe”字眼的:emule|0.49c -exe
选中所有名称的开头是“eMule”,结尾是“0.49c”的:^emule 0.49c$
选中所有名称中带有“eMule 0.49c”的(必须是“eMule 0.49c”,中间没有别的字符,不能是“eMule fake 0.49c”),需要转义:"emule 0.49c"
大小选择器帮您根据文件大小选择文件。