当前位置: 首页 >> 日韩电影 >> 我的野蛮女友[中文字幕].My.Sassy.Girl.2001.DC.1080p.BluRay.x265.10bit.DTS 8.24GB >> 正文

我的野蛮女友[中文字幕].My.Sassy.Girl.2001.DC.1080p.BluRay.x265.10bit.DTS 8.24GB

2021年09月02日 08:29:15     电影发布:来源于网络     电影分类:日韩电影     评论(0)    

我的野蛮女友[中文字幕].My.Sassy.Girl.2001.DC.1080p.BluRay.x265.10bit.DTS 8.24GB 爱情片 喜剧片 剧情片 日韩电影  第1张

◎译 名 我的野蛮女友 / 我的淘气女友 / 猎奇女友 / My Sassy Girl

◎片 名 ???? ??

◎年 代 2001

◎产 地 韩国

◎类 别 剧情 / 喜剧 / 爱情

◎语 言 韩语 / 英语

◎上映日期 2001-07-27(韩国)

◎IMDb链接 https://www.imdb.com/title/tt0293715/

◎豆瓣评分 8.2/10 (410857人评价)

◎豆瓣链接 https://movie.douban.com/subject/1292286/

◎片 长 123分钟(韩国)

◎导 演 郭在容 Jae-young Kwak (id:1275604)

◎编 剧 郭在容 Jae-young Kwak (id:1275604)

金浩植 Ho-sik Kim (id:1456747)

◎演 员 全智贤 Gianna Jun (id:1035649)

车太贤 Tae-hyun Cha (id:1185404)

金仁文 In-mun Kim (id:1053077)

宋玉淑 Wok-suk Song (id:1149973)

韩振熙 Jin-hie Han (id:1187162)

玄淑熙 Sook-hee Hyun (id:1423876)

金一宇 Il-woo Kim (id:1018944)

徐东元 Dong-won Seo (id:1348280)

金敏载 Kim Min-jae (id:1381255)

李在浩 Jae-ho Lee (id:1423882)

朴俊英 Joon-yeong Park (id:1423899)

玄哲浩 Cheol-ho Hyeon (id:1423895)

赵庆勋 Kyeong-hun Jo (id:1423891)

孙光业 Kwang-up Son (id:1388284)

李正学 Jeong-hak Lee (id:1423904)

金太贤 Tae-hyeon Kim (id:1006728)

金哲秀 Cheol-Soo Kim (id:1425666)

李无影 Mu-yeong Lee (id:1329993)

任豪 Ho Lim (id:1184941)

郭在容 Jae-young Kwak (id:1275604)

梁金锡 Geum-Seok Yang (id:1339786)

曹善默 Sun-mook Jo (id:1423910)

金东哲 Dong-cheol Kim (id:1424323)

李恩静 Eun-jeong Lee (id:1423901)

韩在民 Jae-min Han (id:1423907)

郑忠焕 Jun-hwan Jeong (id:1424321)

朴胜裴 Seung-Bae Park (id:1424326)

裴长秀 Jang-su Bae (id:1424325)

张秀英 Soo-young Jang (id:1425773)

文紫英 Ja-Yeong Moon (id:1424328)

任正秀 Jeong-Soo Yim (id:1424327)

(id:1316967)

艺智苑 Ji-won Ye (id:1006269)

柳淳哲 Sun-cheol Yu (id:1373553)

(id:1423893)

金成福 Sung-Bok Kim (id:1452407)

崔盛哲 Seong-Cheol Choi (id:1366551)

李庸基 Yong-Gi Lee (id:1314650)

◎标 签 爱情 / 韩国 / 喜剧 / 搞笑 / 经典 / 青春 / 浪漫 / 2001

◎简 介

牵牛(车太贤饰)第一次与她(全智贤饰)邂逅,就毫无浪漫感可言。在地铁上她就语出惊人,喝的醉醺醺的她大声训斥不自觉给老人让座的人,吐完之后就软趴趴地倒了下来。善良的牵牛上前接住,于是就只好背着她到旅馆投宿了。但是好心不一定有好报,牵牛正在好好洗澡时就被冲进来的警察带走了。

然而这两个人却从此开始约会了。她很霸道很任性,然而当她用那张可爱的面孔对着你笑时,你也忍不住心软。于是牵牛也心甘情愿地被她折磨。渐渐的,牵牛感觉到她的内心受伤了,他用尽全力去呵护去保护,她仍然缺乏安全感。虽然在一起很快乐也很感动,她却仍然提出了一个难以接受的约定:让我们先分开吧……

◎获奖情况 (共3项)

第22届香港电影金像奖 (2003)

最佳亚洲电影

第27届日本电影学院奖 (2004)

最佳外语片(提名)

第28届报知映画赏 (2003)

海外作品奖

└──郭在容 (id:1275604)

  1. ##### MediaInfo ######

  2. General

  3. Unique ID : 310017037157439396000202034932539873781 (0xE93B1C090E25760EFA96B08660C259F5)

  4. Complete name : My.Sassy.Girl.2001.DC.1080p.BluRay.x265.10bit.DTS-10017@BBQDDQ.COM.mkv

  5. Format : Matroska

  6. Format version : Version 4

  7. File size : 8.24 GiB

  8. Duration : 2 h 17 min

  9. Overall bit rate : 8 608 kb/s

  10. Encoded date : UTC 2021-09-01 05:06:10

  11. Writing application : mkvmerge v61.0.0 ('So') 64-bit

  12. Writing library : libebml v1.4.2 + libmatroska v1.6.4


  13. Video

  14. ID : 1

  15. Format : HEVC

  16. Format/Info : High Efficiency Video Coding

  17. Format profile : Main 10@L5@Main

  18. Codec ID : V_MPEGH/ISO/HEVC

  19. Duration : 2 h 17 min

  20. Bit rate : 7 048 kb/s

  21. Width : 1 920 pixels

  22. Height : 984 pixels

  23. Display aspect ratio : 1.951

  24. Frame rate mode : Constant

  25. Frame rate : 23.976 (24000/1001/53354) FPS

  26. Color space : YUV

  27. Chroma subsampling : 4:2:0

  28. Bit depth : 10 bits

  29. Bits/(Pixel*Frame) : 0.156

  30. Stream size : 6.75 GiB (82%)

  31. Writing library : x265 3.5+2-g2b25c9ba0+45:[Windows][GCC 10.2.0][64 bit] Yuuki 10bit+8bit+12bit

  32. Encoding settings : rc=crf / crf=21.0000 / qcomp=0.60 / qpstep=4 / stats-write=0 / stats-read=0 / no-lossless / no-cu-lossless / aq-mode=3 / aq-strength=0.90 / cbqpoffs=0 / crqpoffs=0 / ipratio=1.40 / pbratio=1.30 / psy-rd=2.00 / psy-rdoq=0.00 / deblock=0:0 / ref=6 / limit-refs=1 / no-limit-modes / bframes=8 / b-adapt=2 / bframe-bias=0 / b-pyramid / b-intra / weightp / weightb / min-keyint=24 / max-keyint=240 / rc-lookahead=24 / gop-lookahead=0 / NTMzNTQ=uuDQuD2mJt9fsCf / scenecut=40 / hist-scenecut=0 / radl=0 / max-cu-size=64 / min-cu-size=8 / me=3 / subme=7 / merange=48 / rdoq-level=0 / rd=4 / rdpenalty=0 / dynamic-rd=0.00 / no-rd-refine / ----- / cutree / sao / no-rect / no-amp / no-open-gop / wpp / no-pmode / no-pme / no-psnr / no-ssim / nr-intra=0 / nr-inter=0 / no-constrained-intra / no-strong-intra-smoothing / max-tu-size=32 / tu-inter-depth=1 / tu-intra-depth=1 / limit-tu=0 / qg-size=32 / qpmax=69 / qpmin=0 / ----- / cpuid=533541111039 / frame-threads=4 / numa-pools=+ / log-level=2 / input-csp=1 / input-res=1920x984 / interlace=0 / level-idc=0 / high-tier=1 / uhd-bd=0 / no-allow-non-conformance / no-repeat-headers / aud / no-hrd / info / hash=0 / no-temporal-layers / lookahead-slices=0 / no-splice / no-intra-refresh / no-ssim-rd / signhide / no-tskip / max-merge=3 / temporal-mvp / no-frame-dup / no-hme / no-analyze-src-pics / no-sao-non-deblock / selective-sao=4 / early-skip / rskip / no-fast-intra / no-tskip-fast / no-splitrd-skip / zone-count=0 / no-strict-cbr / no-rc-grain / no-const-vbv / sar=0 / overscan=0 / videoformat=5 / range=0 / colorprim=2 / transfer=2 / colormatrix=2 / chromaloc=0 / display-window=0 / cll=0,0 / min-luma=0 / max-luma=1023 / log2-max-poc-lsb=8 / vui-timing-info / vui-hrd-info / slices=1 / no-opt-qp-pps / no-opt-ref-list-length-pps / no-multi-pass-opt-rps / scenecut-bias=0.05 / hist-threshold=0.03 / no-opt-cu-delta-qp / no-aq-motion / no-hdr10 / no-hdr10-opt / no-dhdr10-opt / no-idr-recovery-sei / analysis-reuse-level=0 / analysis-save-reuse-level=0 / analysis-load-reuse-level=0 / scale-factor=0 / refine-intra=0 / refine-inter=0 / refine-mv=1 / refine-ctu-distortion=0 / no-limit-sao / ctu-info=0 / no-lowpass-dct / refine-analysis-type=0 / copy-pic=1 / max-ausize-factor=1.0 / no-dynamic-refine / no-single-sei / no-hevc-aq / no-svt / no-field / qp-adaptation-range=1.00 / scenecut-aware-qp=0conformance-window-offsets / right=0 / bottom=0 / NTMzNTQ= / decoder-max-rate=0 / no-vbv-live-multi-pass

  33. Default : Yes

  34. Forced : No


  35. Audio

  36. ID : 2

  37. ID in the original source medium : 4352 (0x1100)

  38. Format : DTS

  39. Format/Info : Digital Theater Systems

  40. Codec ID : A_DTS

  41. Duration : 2 h 17 min

  42. Bit rate mode : Constant

  43. Bit rate : 1 509 kb/s

  44. Channel(s) : 6 channels

  45. Channel layout : C L R Ls Rs LFE

  46. Sampling rate : 48.0 kHz

  47. Frame rate : 93.750 FPS (512 SPF)

  48. Bit depth : 24 bits

  49. Compression mode : Lossy

  50. Stream size : 1.44 GiB (18%)

  51. Language : Korean

  52. Default : Yes

  53. Forced : No

  54. Original source medium : Blu-ray


  55. Text #1

  56. ID : 3

  57. ID in the original source medium : 4611 (0x1203)

  58. Format : PGS

  59. Muxing mode : zlib

  60. Codec ID : S_HDMV/PGS

  61. Codec ID/Info : Picture based subtitle format used on BDs/HD-DVDs

  62. Duration : 2 h 13 min

  63. Bit rate : 20.5 kb/s

  64. Count of elements : 2877

  65. Stream size : 19.6 MiB (0%)

  66. Title : chs

  67. Language : Chinese

  68. Default : Yes

  69. Forced : No

  70. Original source medium : Blu-ray


  71. Text #2

  72. ID : 4

  73. ID in the original source medium : 4612 (0x1204)

  74. Format : PGS

  75. Muxing mode : zlib

  76. Codec ID : S_HDMV/PGS

  77. Codec ID/Info : Picture based subtitle format used on BDs/HD-DVDs

  78. Duration : 2 h 13 min

  79. Bit rate : 20.7 kb/s

  80. Count of elements : 2877

  81. Stream size : 19.8 MiB (0%)

  82. Title : cht

  83. Language : Chinese

  84. Default : No

  85. Forced : No

  86. Original source medium : Blu-ray


  87. Text #3

  88. ID : 5

  89. ID in the original source medium : 4608 (0x1200)

  90. Format : PGS

  91. Muxing mode : zlib

  92. Codec ID : S_HDMV/PGS

  93. Codec ID/Info : Picture based subtitle format used on BDs/HD-DVDs

  94. Duration : 2 h 13 min

  95. Bit rate : 23.4 kb/s

  96. Count of elements : 2587

  97. Stream size : 22.3 MiB (0%)

  98. Title : kor

  99. Language : Korean

  100. Default : No

  101. Forced : No

  102. Original source medium : Blu-ray


  103. Text #4

  104. ID : 6

  105. ID in the original source medium : 4609 (0x1201)

  106. Format : PGS

  107. Muxing mode : zlib

  108. Codec ID : S_HDMV/PGS

  109. Codec ID/Info : Picture based subtitle format used on BDs/HD-DVDs

  110. Duration : 2 h 14 min

  111. Bit rate : 36.8 kb/s

  112. Count of elements : 2673

  113. Stream size : 35.3 MiB (0%)

  114. Title : eng

  115. Language : English

  116. Default : No

  117. Forced : No

  118. Original source medium : Blu-ray


  119. Menu

  120. 00:00:00.000 : 第 01 章

  121. 00:02:34.404 : 第 02 章

  122. 00:04:08.331 : 第 03 章

  123. 00:04:58.381 : 第 04 章

  124. 00:09:41.247 : 第 05 章

  125. 00:13:57.253 : 第 06 章

  126. 00:18:31.110 : 第 07 章

  127. 00:20:57.172 : 第 08 章

  128. 00:24:11.032 : 第 09 章

  129. 00:28:14.943 : 第 10 章

  130. 00:32:59.894 : 第 11 章

  131. 00:36:36.277 : 第 12 章

  132. 00:39:34.789 : 第 13 章

  133. 00:43:44.788 : 第 14 章

  134. 00:46:17.107 : 第 15 章

  135. 00:49:05.609 : 第 16 章

  136. 00:54:31.601 : 第 17 章

  137. 00:57:16.516 : 第 18 章

  138. 01:06:23.604 : 第 19 章

  139. 01:10:36.482 : 第 20 章

  140. 01:12:55.412 : 第 21 章

  141. 01:16:30.836 : 第 22 章

  142. 01:20:29.908 : 第 23 章

  143. 01:22:28.360 : 第 24 章

  144. 01:26:30.268 : 第 25 章

  145. 01:28:48.656 : 第 26 章

  146. 01:36:30.367 : 第 27 章

  147. 01:41:14.318 : 第 28 章

  148. 01:49:58.341 : 第 29 章

  149. 01:54:05.296 : 第 30 章

  150. 01:58:08.706 : 第 31 章

  151. 02:00:15.208 : 第 32 章

  152. 02:04:46.270 : 第 33 章

  153. 02:09:29.136 : 第 34 章




文件下载


除非特别注明,本文『我的野蛮女友[中文字幕].My.Sassy.Girl.2001.DC.1080p.BluRay.x265.10bit.DTS 8.24GB』来源于互联网机器人自动抓取,非本站原创。 浮游电影网不对本文拥有版权,如有侵犯,请联系邮箱:fuyouu#yandex.com[#换成@]投诉。我们会在15个工作日内删除。 但烦请转载时请标明出处:“本文转载于『浮游电影网』,原文地址:https://www.fuyouu.com/14125.html

评论吧骚年!

发表你的见解   

昵称*

E-mail*(建议输入,以便收到博主回复的提示邮件)

验证码*

您可以使用eMule或eMule Mod(Windows)、aMule(Win、Linux、Mac)等软件下载eD2k链接。。
eMule收藏集(.emulecollection)文件是您选中的所有链接的列表文件。eMule可以直接下载它们。
按住SHIFT键选择可以选中多个选择框。
可用文件名和大小选择器来选择文件。
文件名选择器帮您根据文件名称或后缀来选择文件。不分大小写。
符号使用:
和:空格( )、+
不包含:-
或:|
转义:一对英文引号("");
匹配开头:^
匹配结尾:$
例如:
选中所有名称中包含有“eMule”或“0.49c”字眼,但不包含有“exe”字眼的:emule|0.49c -exe
选中所有名称的开头是“eMule”,结尾是“0.49c”的:^emule 0.49c$
选中所有名称中带有“eMule 0.49c”的(必须是“eMule 0.49c”,中间没有别的字符,不能是“eMule fake 0.49c”),需要转义:"emule 0.49c"
大小选择器帮您根据文件大小选择文件。