当前位置: 首页 >> 海外电影 >> 暗黑之岛[中文字幕].Black.Island.2021.1080p.NF.WEB-DL.DDP5.1.x264 6.45GB >> 正文

暗黑之岛[中文字幕].Black.Island.2021.1080p.NF.WEB-DL.DDP5.1.x264 6.45GB

2021年09月01日 00:16:34     电影发布:来源于网络     电影分类:海外电影     评论(0)    

暗黑之岛[中文字幕].Black.Island.2021.1080p.NF.WEB DL.DDP5.1.x264 6.45GB 悬疑片 惊悚片 海外电影  第1张

◎译 名 Schwarze Insel / Black Island

◎年 代 2021

◎产 地 德国

◎类 别 悬疑 / 惊悚

◎语 言 泰语

◎上映日期 2021-08-18(德国)

◎IMDb链接 https://www.imdb.com/title/tt12881516/

◎豆瓣链接 https://movie.douban.com/subject/35555175/

◎片 长 104分钟

◎导 演 米格尔·亚历山大 Miguel Alexandre (id:1060128)

◎编 剧 米格尔·亚历山大 Miguel Alexandre (id:1060128)

◎演 员 汉斯·齐施勒 Hanns Zischler (id:1016662)

爱丽丝·德维尔 Alice Dwyer (id:1282135)

尼科尔·默西迪丝·穆勒 Nicole Mercedes Müller (id:1223773)

◎标 签 黑色 / 德国 / 惊悚 / netflix未看 / netflix原创电影

◎简 介

The dark secrets of a seemingly peaceful island threaten to swallow up an orphaned student when he grows close to a mysterious new teacher.

  1. ##### MediaInfo ######

  2. General

  3. Unique ID : 336018636444146965508829435181926167099 (0xFCCAD5DB769E9891BB90DD1AD47BB23B)

  4. Complete name : Black.Island.2021.1080p.NF.WEB-DL.DDP5.1.x264-10002@BBQDDQ.COM.mkv

  5. Format : Matroska

  6. Format version : Version 4

  7. File size : 6.44 GiB

  8. Duration : 1 h 44 min

  9. Overall bit rate mode : Variable

  10. Overall bit rate : 8 798 kb/s

  11. Encoded date : UTC 2021-08-29 14:27:12

  12. Writing application : mkvmerge v44.0.0 ('Domino') 64-bit

  13. Writing library : libebml v1.3.10 + libmatroska v1.5.2


  14. Video

  15. ID : 1

  16. Format : AVC

  17. Format/Info : Advanced Video Codec

  18. Format profile : Main@L4

  19. Format settings : CABAC / 3 Ref Frames

  20. Format settings, CABAC : Yes

  21. Format settings, Reference frames : 3 frames

  22. Codec ID : V_MPEG4/ISO/AVC

  23. Duration : 1 h 44 min

  24. Bit rate mode : Variable

  25. Bit rate : 3 031 kb/s

  26. Nominal bit rate : 3 349 kb/s

  27. Maximum bit rate : 6 630 kb/s

  28. Width : 1 920 pixels

  29. Height : 1 080 pixels

  30. Display aspect ratio : 16:9

  31. Frame rate mode : Constant

  32. Frame rate : 25.000 FPS

  33. Color space : YUV

  34. Chroma subsampling : 4:2:0

  35. Bit depth : 8 bits

  36. Scan type : Progressive

  37. Bits/(Pixel*Frame) : 0.058

  38. Stream size : 2.22 GiB (34%)

  39. Writing library : x264 core 148 r2722 1b0121b

  40. Encoding settings : cabac=1 / ref=3 / deblock=1:0:0 / analyse=0x1:0x111 / me=umh / subme=10 / psy=1 / psy_rd=1.00:0.00 / mixed_ref=1 / me_range=24 / chroma_me=1 / trellis=2 / 8x8dct=0 / cqm=0 / deadzone=21,11 / fast_pskip=1 / chroma_qp_offset=-2 / threads=8 / lookahead_threads=1 / sliced_threads=0 / nr=0 / decimate=1 / interlaced=0 / NTMzNTQ= / bluray_compat=0 / stitchable=1 / constrained_intra=0 / bframes=2 / b_pyramid=0 / b_adapt=2 / b_bias=0 / direct=3 / weightb=1 / open_gop=0 / weightp=2 / keyint=250 / keyint_min=25 / scenecut=0 / intra_refresh=0 / rc_lookahead=50 / rc=2pass / mbtree=1 / bitrate=3349 / ratetol=1.0 / qcomp=0.50 / qpmin=6 / qpmax=51 / qpstep=4 / cplxblur=20.0 / qblur=0.5 / vbv_maxrate=6630 / vbv_bufsize=8840 / nal_hrd=vbr / filler=0 / NTMzNTQ=LmsMAP37EqsCpk / ip_ratio=1.40 / aq=1:1.00

  41. Default : Yes

  42. Forced : No


  43. Audio #1

  44. ID : 2

  45. Format : E-AC-3

  46. Format/Info : Enhanced AC-3

  47. Commercial name : Dolby Digital Plus

  48. Codec ID : A_EAC3

  49. Duration : 1 h 44 min

  50. Bit rate mode : Constant

  51. Bit rate : 640 kb/s

  52. Channel(s) : 6 channels

  53. Channel layout : L R C LFE Ls Rs

  54. Sampling rate : 48.0 kHz

  55. Frame rate : 31.250 FPS (1536 SPF)

  56. Compression mode : Lossy

  57. Stream size : 480 MiB (7%)

  58. Title : German

  59. Language : German

  60. Service kind : Complete Main

  61. Default : Yes

  62. Forced : No


  63. Audio #2

  64. ID : 3

  65. Format : E-AC-3

  66. Format/Info : Enhanced AC-3

  67. Commercial name : Dolby Digital Plus

  68. Codec ID : A_EAC3

  69. Duration : 1 h 44 min

  70. Bit rate mode : Constant

  71. Bit rate : 640 kb/s

  72. Channel(s) : 6 channels

  73. Channel layout : L R C LFE Ls Rs

  74. Sampling rate : 48.0 kHz

  75. Frame rate : 31.250 FPS (1536 SPF)

  76. Compression mode : Lossy

  77. Stream size : 480 MiB (7%)

  78. Title : English

  79. Language : English

  80. Service kind : Complete Main

  81. Default : No

  82. Forced : No


  83. Audio #3

  84. ID : 4

  85. Format : E-AC-3

  86. Format/Info : Enhanced AC-3

  87. Commercial name : Dolby Digital Plus

  88. Codec ID : A_EAC3

  89. Duration : 1 h 44 min

  90. Bit rate mode : Constant

  91. Bit rate : 640 kb/s

  92. Channel(s) : 6 channels

  93. Channel layout : L R C LFE Ls Rs

  94. Sampling rate : 48.0 kHz

  95. Frame rate : 31.250 FPS (1536 SPF)

  96. Compression mode : Lossy

  97. Stream size : 480 MiB (7%)

  98. Title : French

  99. Language : French

  100. Service kind : Complete Main

  101. Default : No

  102. Forced : No


  103. Audio #4

  104. ID : 5

  105. Format : E-AC-3

  106. Format/Info : Enhanced AC-3

  107. Commercial name : Dolby Digital Plus

  108. Codec ID : A_EAC3

  109. Duration : 1 h 44 min

  110. Bit rate mode : Constant

  111. Bit rate : 640 kb/s

  112. Channel(s) : 6 channels

  113. Channel layout : L R C LFE Ls Rs

  114. Sampling rate : 48.0 kHz

  115. Frame rate : 31.250 FPS (1536 SPF)

  116. Compression mode : Lossy

  117. Stream size : 480 MiB (7%)

  118. Title : Italian

  119. Language : Italian

  120. Service kind : Complete Main

  121. Default : No

  122. Forced : No


  123. Audio #5

  124. ID : 6

  125. Format : E-AC-3

  126. Format/Info : Enhanced AC-3

  127. Commercial name : Dolby Digital Plus

  128. Codec ID : A_EAC3

  129. Duration : 1 h 44 min

  130. Bit rate mode : Constant

  131. Bit rate : 640 kb/s

  132. Channel(s) : 6 channels

  133. Channel layout : L R C LFE Ls Rs

  134. Sampling rate : 48.0 kHz

  135. Frame rate : 31.250 FPS (1536 SPF)

  136. Compression mode : Lossy

  137. Stream size : 480 MiB (7%)

  138. Title : Polish

  139. Language : Polish

  140. Service kind : Complete Main

  141. Default : No

  142. Forced : No


  143. Audio #6

  144. ID : 7

  145. Format : E-AC-3

  146. Format/Info : Enhanced AC-3

  147. Commercial name : Dolby Digital Plus

  148. Codec ID : A_EAC3

  149. Duration : 1 h 44 min

  150. Bit rate mode : Constant

  151. Bit rate : 640 kb/s

  152. Channel(s) : 6 channels

  153. Channel layout : L R C LFE Ls Rs

  154. Sampling rate : 48.0 kHz

  155. Frame rate : 31.250 FPS (1536 SPF)

  156. Compression mode : Lossy

  157. Stream size : 480 MiB (7%)

  158. Title : Brazilian Portuguese

  159. Language : Portuguese

  160. Service kind : Complete Main

  161. Default : No

  162. Forced : No


  163. Audio #7

  164. ID : 8

  165. Format : E-AC-3

  166. Format/Info : Enhanced AC-3

  167. Commercial name : Dolby Digital Plus

  168. Codec ID : A_EAC3

  169. Duration : 1 h 44 min

  170. Bit rate mode : Constant

  171. Bit rate : 640 kb/s

  172. Channel(s) : 6 channels

  173. Channel layout : L R C LFE Ls Rs

  174. Sampling rate : 48.0 kHz

  175. Frame rate : 31.250 FPS (1536 SPF)

  176. Compression mode : Lossy

  177. Stream size : 480 MiB (7%)

  178. Title : Spanish

  179. Language : Spanish

  180. Service kind : Complete Main

  181. Default : No

  182. Forced : No


  183. Audio #8

  184. ID : 9

  185. Format : E-AC-3

  186. Format/Info : Enhanced AC-3

  187. Commercial name : Dolby Digital Plus

  188. Codec ID : A_EAC3

  189. Duration : 1 h 44 min

  190. Bit rate mode : Constant

  191. Bit rate : 640 kb/s

  192. Channel(s) : 6 channels

  193. Channel layout : L R C LFE Ls Rs

  194. Sampling rate : 48.0 kHz

  195. Frame rate : 31.250 FPS (1536 SPF)

  196. Compression mode : Lossy

  197. Stream size : 480 MiB (7%)

  198. Title : European Spanish

  199. Language : Spanish

  200. Service kind : Complete Main

  201. Default : No

  202. Forced : No


  203. Audio #9

  204. ID : 10

  205. Format : E-AC-3

  206. Format/Info : Enhanced AC-3

  207. Commercial name : Dolby Digital Plus

  208. Codec ID : A_EAC3

  209. Duration : 1 h 44 min

  210. Bit rate mode : Constant

  211. Bit rate : 640 kb/s

  212. Channel(s) : 6 channels

  213. Channel layout : L R C LFE Ls Rs

  214. Sampling rate : 48.0 kHz

  215. Frame rate : 31.250 FPS (1536 SPF)

  216. Compression mode : Lossy

  217. Stream size : 480 MiB (7%)

  218. Title : Turkish

  219. Language : Turkish

  220. Service kind : Complete Main

  221. Default : No

  222. Forced : No


  223. Text #1

  224. ID : 11

  225. Format : UTF-8

  226. Codec ID : S_TEXT/UTF8

  227. Codec ID/Info : UTF-8 Plain Text

  228. Duration : 1 h 41 min

  229. Bit rate : 28 b/s

  230. Count of elements : 723

  231. Stream size : 20.9 KiB (0%)

  232. Title : English

  233. Language : English

  234. Default : Yes

  235. Forced : No


  236. Text #2

  237. ID : 12

  238. Format : UTF-8

  239. Codec ID : S_TEXT/UTF8

  240. Codec ID/Info : UTF-8 Plain Text

  241. Duration : 1 h 43 min

  242. Bit rate : 44 b/s

  243. Count of elements : 733

  244. Stream size : 34.1 KiB (0%)

  245. Title : Arabic

  246. Language : Arabic

  247. Default : No

  248. Forced : No


  249. Text #3

  250. ID : 13

  251. Format : UTF-8

  252. Codec ID : S_TEXT/UTF8

  253. Codec ID/Info : UTF-8 Plain Text

  254. Duration : 1 h 43 min

  255. Bit rate : 29 b/s

  256. Count of elements : 730

  257. Stream size : 22.7 KiB (0%)

  258. Title : Chinese Simplified

  259. Language : Chinese

  260. Default : No

  261. Forced : No


  262. Text #4

  263. ID : 14

  264. Format : UTF-8

  265. Codec ID : S_TEXT/UTF8

  266. Codec ID/Info : UTF-8 Plain Text

  267. Duration : 1 h 43 min

  268. Bit rate : 28 b/s

  269. Count of elements : 734

  270. Stream size : 21.5 KiB (0%)

  271. Title : Chinese Traditional

  272. Language : Chinese

  273. Default : No

  274. Forced : No


  275. Text #5

  276. ID : 15

  277. Format : UTF-8

  278. Codec ID : S_TEXT/UTF8

  279. Codec ID/Info : UTF-8 Plain Text

  280. Duration : 1 h 43 min

  281. Bit rate : 25 b/s

  282. Count of elements : 711

  283. Stream size : 19.2 KiB (0%)

  284. Title : Croatian

  285. Language : Croatian

  286. Default : No

  287. Forced : No


  288. Text #6

  289. ID : 16

  290. Format : UTF-8

  291. Codec ID : S_TEXT/UTF8

  292. Codec ID/Info : UTF-8 Plain Text

  293. Duration : 1 h 43 min

  294. Bit rate : 26 b/s

  295. Count of elements : 723

  296. Stream size : 20.4 KiB (0%)

  297. Title : Czech

  298. Language : Czech

  299. Default : No

  300. Forced : No


  301. Text #7

  302. ID : 17

  303. Format : UTF-8

  304. Codec ID : S_TEXT/UTF8

  305. Codec ID/Info : UTF-8 Plain Text

  306. Duration : 1 h 43 min

  307. Bit rate : 25 b/s

  308. Count of elements : 727

  309. Stream size : 19.4 KiB (0%)

  310. Title : Danish

  311. Language : Danish

  312. Default : No

  313. Forced : No


  314. Text #8

  315. ID : 18

  316. Format : UTF-8

  317. Codec ID : S_TEXT/UTF8

  318. Codec ID/Info : UTF-8 Plain Text

  319. Duration : 1 h 43 min

  320. Bit rate : 25 b/s

  321. Count of elements : 673

  322. Stream size : 19.3 KiB (0%)

  323. Title : Dutch

  324. Language : Dutch

  325. Default : No

  326. Forced : No


  327. Text #9

  328. ID : 19

  329. Format : UTF-8

  330. Codec ID : S_TEXT/UTF8

  331. Codec ID/Info : UTF-8 Plain Text

  332. Duration : 1 h 43 min

  333. Bit rate : 25 b/s

  334. Count of elements : 711

  335. Stream size : 19.2 KiB (0%)

  336. Title : Finnish

  337. Language : Finnish

  338. Default : No

  339. Forced : No


  340. Text #10

  341. ID : 20

  342. Format : UTF-8

  343. Codec ID : S_TEXT/UTF8

  344. Codec ID/Info : UTF-8 Plain Text

  345. Duration : 1 h 43 min

  346. Bit rate : 29 b/s

  347. Count of elements : 728

  348. Stream size : 22.1 KiB (0%)

  349. Title : French

  350. Language : French

  351. Default : No

  352. Forced : No


  353. Text #11

  354. ID : 21

  355. Format : UTF-8

  356. Codec ID : S_TEXT/UTF8

  357. Codec ID/Info : UTF-8 Plain Text

  358. Duration : 1 h 41 min

  359. Bit rate : 38 b/s

  360. Count of elements : 919

  361. Stream size : 28.9 KiB (0%)

  362. Title : German

  363. Language : German

  364. Default : No

  365. Forced : No


  366. Text #12

  367. ID : 22

  368. Format : UTF-8

  369. Codec ID : S_TEXT/UTF8

  370. Codec ID/Info : UTF-8 Plain Text

  371. Duration : 1 h 43 min

  372. Bit rate : 43 b/s

  373. Count of elements : 728

  374. Stream size : 33.4 KiB (0%)

  375. Title : Greek

  376. Language : Greek

  377. Default : No

  378. Forced : No


  379. Text #13

  380. ID : 23

  381. Format : UTF-8

  382. Codec ID : S_TEXT/UTF8

  383. Codec ID/Info : UTF-8 Plain Text

  384. Duration : 1 h 43 min

  385. Bit rate : 42 b/s

  386. Count of elements : 719

  387. Stream size : 32.2 KiB (0%)

  388. Title : Hebrew

  389. Language : Hebrew

  390. Default : No

  391. Forced : No


  392. Text #14

  393. ID : 24

  394. Format : UTF-8

  395. Codec ID : S_TEXT/UTF8

  396. Codec ID/Info : UTF-8 Plain Text

  397. Duration : 1 h 43 min

  398. Bit rate : 26 b/s

  399. Count of elements : 720

  400. Stream size : 20.5 KiB (0%)

  401. Title : Hungarian

  402. Language : Hungarian

  403. Default : No

  404. Forced : No


  405. Text #15

  406. ID : 25

  407. Format : UTF-8

  408. Codec ID : S_TEXT/UTF8

  409. Codec ID/Info : UTF-8 Plain Text

  410. Duration : 1 h 43 min

  411. Bit rate : 26 b/s

  412. Count of elements : 728

  413. Stream size : 20.3 KiB (0%)

  414. Title : Indonesian

  415. Language : Indonesian

  416. Default : No

  417. Forced : No


  418. Text #16

  419. ID : 26

  420. Format : UTF-8

  421. Codec ID : S_TEXT/UTF8

  422. Codec ID/Info : UTF-8 Plain Text

  423. Duration : 1 h 43 min

  424. Bit rate : 26 b/s

  425. Count of elements : 729

  426. Stream size : 20.5 KiB (0%)

  427. Title : Italian

  428. Language : Italian

  429. Default : No

  430. Forced : No


  431. Text #17

  432. ID : 27

  433. Format : UTF-8

  434. Codec ID : S_TEXT/UTF8

  435. Codec ID/Info : UTF-8 Plain Text

  436. Duration : 1 h 43 min

  437. Bit rate : 25 b/s

  438. Count of elements : 770

  439. Stream size : 19.6 KiB (0%)

  440. Title : Japanese

  441. Language : Japanese

  442. Default : No

  443. Forced : No


  444. Text #18

  445. ID : 28

  446. Format : UTF-8

  447. Codec ID : S_TEXT/UTF8

  448. Codec ID/Info : UTF-8 Plain Text

  449. Duration : 1 h 43 min

  450. Bit rate : 34 b/s

  451. Count of elements : 739

  452. Stream size : 26.6 KiB (0%)

  453. Title : Korean

  454. Language : Korean

  455. Default : No

  456. Forced : No


  457. Text #19

  458. ID : 29

  459. Format : UTF-8

  460. Codec ID : S_TEXT/UTF8

  461. Codec ID/Info : UTF-8 Plain Text

  462. Duration : 1 h 43 min

  463. Bit rate : 26 b/s

  464. Count of elements : 742

  465. Stream size : 20.5 KiB (0%)

  466. Title : Malay

  467. Language : Malay

  468. Default : No

  469. Forced : No


  470. Text #20

  471. ID : 30

  472. Format : UTF-8

  473. Codec ID : S_TEXT/UTF8

  474. Codec ID/Info : UTF-8 Plain Text

  475. Duration : 1 h 43 min

  476. Bit rate : 26 b/s

  477. Count of elements : 699

  478. Stream size : 19.9 KiB (0%)

  479. Title : Norwegian Bokmal

  480. Language : Norwegian Bokmal

  481. Default : No

  482. Forced : No


  483. Text #21

  484. ID : 31

  485. Format : UTF-8

  486. Codec ID : S_TEXT/UTF8

  487. Codec ID/Info : UTF-8 Plain Text

  488. Duration : 1 h 43 min

  489. Bit rate : 25 b/s

  490. Count of elements : 716

  491. Stream size : 19.4 KiB (0%)

  492. Title : Polish

  493. Language : Polish

  494. Default : No

  495. Forced : No


  496. Text #22

  497. ID : 32

  498. Format : UTF-8

  499. Codec ID : S_TEXT/UTF8

  500. Codec ID/Info : UTF-8 Plain Text

  501. Duration : 1 h 43 min

  502. Bit rate : 27 b/s

  503. Count of elements : 723

  504. Stream size : 21.3 KiB (0%)

  505. Title : Portuguese

  506. Language : Portuguese

  507. Default : No

  508. Forced : No


  509. Text #23

  510. ID : 33

  511. Format : UTF-8

  512. Codec ID : S_TEXT/UTF8

  513. Codec ID/Info : UTF-8 Plain Text

  514. Duration : 1 h 43 min

  515. Bit rate : 26 b/s

  516. Count of elements : 713

  517. Stream size : 20.2 KiB (0%)

  518. Title : Brazilian Portuguese

  519. Language : Portuguese

  520. Default : No

  521. Forced : No


  522. Text #24

  523. ID : 34

  524. Format : UTF-8

  525. Codec ID : S_TEXT/UTF8

  526. Codec ID/Info : UTF-8 Plain Text

  527. Duration : 1 h 41 min

  528. Bit rate : 29 b/s

  529. Count of elements : 722

  530. Stream size : 22.1 KiB (0%)

  531. Title : Romanian

  532. Language : Romanian

  533. Default : No

  534. Forced : No


  535. Text #25

  536. ID : 35

  537. Format : UTF-8

  538. Codec ID : S_TEXT/UTF8

  539. Codec ID/Info : UTF-8 Plain Text

  540. Duration : 1 h 43 min

  541. Bit rate : 40 b/s

  542. Count of elements : 713

  543. Stream size : 31.0 KiB (0%)

  544. Title : Russian

  545. Language : Russian

  546. Default : No

  547. Forced : No


  548. Text #26

  549. ID : 36

  550. Format : UTF-8

  551. Codec ID : S_TEXT/UTF8

  552. Codec ID/Info : UTF-8 Plain Text

  553. Duration : 1 h 43 min

  554. Bit rate : 26 b/s

  555. Count of elements : 732

  556. Stream size : 20.2 KiB (0%)

  557. Title : Spanish

  558. Language : Spanish

  559. Default : No

  560. Forced : No


  561. Text #27

  562. ID : 37

  563. Format : UTF-8

  564. Codec ID : S_TEXT/UTF8

  565. Codec ID/Info : UTF-8 Plain Text

  566. Duration : 1 h 43 min

  567. Bit rate : 26 b/s

  568. Count of elements : 728

  569. Stream size : 20.2 KiB (0%)

  570. Title : European Spanish

  571. Language : Spanish

  572. Default : No

  573. Forced : No


  574. Text #28

  575. ID : 38

  576. Format : UTF-8

  577. Codec ID : S_TEXT/UTF8

  578. Codec ID/Info : UTF-8 Plain Text

  579. Duration : 1 h 43 min

  580. Bit rate : 28 b/s

  581. Count of elements : 656

  582. Stream size : 21.5 KiB (0%)

  583. Title : Swedish

  584. Language : Swedish

  585. Default : No

  586. Forced : No


  587. Text #29

  588. ID : 39

  589. Format : UTF-8

  590. Codec ID : S_TEXT/UTF8

  591. Codec ID/Info : UTF-8 Plain Text

  592. Duration : 1 h 43 min

  593. Bit rate : 69 b/s

  594. Count of elements : 733

  595. Stream size : 53.1 KiB (0%)

  596. Title : Thai

  597. Language : Thai

  598. Default : No

  599. Forced : No


  600. Text #30

  601. ID : 40

  602. Format : UTF-8

  603. Codec ID : S_TEXT/UTF8

  604. Codec ID/Info : UTF-8 Plain Text

  605. Duration : 1 h 43 min

  606. Bit rate : 26 b/s

  607. Count of elements : 724

  608. Stream size : 20.4 KiB (0%)

  609. Title : Turkish

  610. Language : Turkish

  611. Default : No

  612. Forced : No


  613. Text #31

  614. ID : 41

  615. Format : UTF-8

  616. Codec ID : S_TEXT/UTF8

  617. Codec ID/Info : UTF-8 Plain Text

  618. Duration : 1 h 43 min

  619. Bit rate : 43 b/s

  620. Count of elements : 732

  621. Stream size : 33.3 KiB (0%)

  622. Title : Ukrainian

  623. Language : Ukrainian

  624. Default : No

  625. Forced : No


  626. Text #32

  627. ID : 42

  628. Format : UTF-8

  629. Codec ID : S_TEXT/UTF8

  630. Codec ID/Info : UTF-8 Plain Text

  631. Duration : 1 h 43 min

  632. Bit rate : 38 b/s

  633. Count of elements : 732

  634. Stream size : 29.3 KiB (0%)

  635. Title : Vietnamese

  636. Language : Vietnamese

  637. Default : No

  638. Forced : No


文件下载


除非特别注明,本文『暗黑之岛[中文字幕].Black.Island.2021.1080p.NF.WEB-DL.DDP5.1.x264 6.45GB』来源于互联网机器人自动抓取,非本站原创。 浮游电影网不对本文拥有版权,如有侵犯,请联系邮箱:fuyouu#yandex.com[#换成@]投诉。我们会在15个工作日内删除。 但烦请转载时请标明出处:“本文转载于『浮游电影网』,原文地址:https://www.fuyouu.com/14109.html

评论吧骚年!

发表你的见解   

昵称*

E-mail*(建议输入,以便收到博主回复的提示邮件)

验证码*

您可以使用eMule或eMule Mod(Windows)、aMule(Win、Linux、Mac)等软件下载eD2k链接。。
eMule收藏集(.emulecollection)文件是您选中的所有链接的列表文件。eMule可以直接下载它们。
按住SHIFT键选择可以选中多个选择框。
可用文件名和大小选择器来选择文件。
文件名选择器帮您根据文件名称或后缀来选择文件。不分大小写。
符号使用:
和:空格( )、+
不包含:-
或:|
转义:一对英文引号("");
匹配开头:^
匹配结尾:$
例如:
选中所有名称中包含有“eMule”或“0.49c”字眼,但不包含有“exe”字眼的:emule|0.49c -exe
选中所有名称的开头是“eMule”,结尾是“0.49c”的:^emule 0.49c$
选中所有名称中带有“eMule 0.49c”的(必须是“eMule 0.49c”,中间没有别的字符,不能是“eMule fake 0.49c”),需要转义:"emule 0.49c"
大小选择器帮您根据文件大小选择文件。