当前位置: 首页 >> 国产电影 >> 醉拳苏乞儿[国语配音/中文字幕].Zui.Quan.Su.Qi.Er.2021.WEB-DL.1080p.H264.AAC 1.20GB >> 正文

醉拳苏乞儿[国语配音/中文字幕].Zui.Quan.Su.Qi.Er.2021.WEB-DL.1080p.H264.AAC 1.20GB

2021年09月01日 00:11:08     电影发布:来源于网络     电影分类:国产电影     评论(0)    

醉拳苏乞儿[国语配音/中文字幕].Zui.Quan.Su.Qi.Er.2021.WEB-DL.1080p.H264.AAC 1.20GB

◎译 名 醉拳苏乞儿

◎年 代 2021

◎产 地 中国大陆

◎类 别 爱情 / 武侠 / 古装

◎上映日期 2021-08-25(中国大陆)

◎IMDb链接 https://www.imdb.com/title//

◎豆瓣链接 https://movie.douban.com/subject/35309670/

◎导 演 李大川 Dachuan Li (id:1360301)

◎编 剧 张宴尘 Yanchen Zhang (id:1396758)

◎演 员 程启蒙 Qimeng Cheng (id:1416478)

周洛伊 Luoyi Zhou (id:1451224)

◎标 签 下流的无耻

◎简 介

该故事讲述苏灿出神官宦之家,玩世不恭,年少轻狂。硝烟大会上,父亲广州提督苏贵遭硕拖一党暗杀差点丧生,苏灿因此与硕拖结怨,也与丐帮帮主刘僵相识。醉梦楼沈洳玉(周洛伊饰)是他的红颜知己,在苏灿多次被硕拖打击之时,均不离不弃。硕拖担心苏贵查出他与西方勾结倒卖鸦片之事,便以徇私舞弊之罪杀害苏家三十多口,打断苏灿的四肢,原以为苏灿会因此消沉潦倒,没想到苏灿触底反弹,跟随刘僵苦练功夫,为完成父亲硝烟的遗志与硕拖抗衡,最终与左都御史顾瀛合力将硕拖一党绳之以法。

  1. ##### MediaInfo ######

  2. General

  3. Complete name : 醉拳苏乞儿.Zui.Quan.Su.Qi.Er.2021.WEB-DL.1080p.H264.AAC-10003@BBQDDQ.COM.mp4

  4. Format : MPEG-4

  5. Format profile : Base Media

  6. Codec ID : isom (isom/iso2/avc1/mp41)

  7. File size : 1.20 GiB

  8. Duration : 1 h 13 min

  9. Overall bit rate : 2 339 kb/s

  10. Writing application : Lavf58.29.100

  11. Video

  12. ID : 1

  13. Format : AVC

  14. Format/Info : Advanced Video Codec

  15. Format profile : High@L4

  16. Format settings : CABAC / 4 Ref Frames

  17. Format settings, CABAC : Yes

  18. Format settings, Reference frames : 4 frames

  19. Codec ID : avc1

  20. Codec ID/Info : Advanced Video Coding

  21. Duration : 1 h 13 min

  22. Bit rate : 2 238 kb/s

  23. Width : 1 920 pixels

  24. Height : 816 pixels

  25. Display aspect ratio : 2.35:1

  26. Frame rate mode : Variable

  27. Frame rate : 24.000 FPS

  28. Minimum frame rate : 23.994 FPS

  29. Maximum frame rate : 24.006 FPS

  30. Color space : YUV

  31. Chroma subsampling : 4:2:0

  32. Bit depth : 8 bits

  33. Scan type : Progressive

  34. Bits/(Pixel*Frame) : 0.060

  35. Stream size : 1.15 GiB (96%)

  36. Writing library : ptw-1.0.134 rcm-adapt vs-93 vwk

  37. Color range : Limited

  38. Color primaries : BT.709

  39. Transfer characteristics : BT.709

  40. Matrix coefficients : BT.709

  41. Codec configuration box : avcC

  42. Audio

  43. ID : 2

  44. Format : AAC LC

  45. Format/Info : Advanced Audio Codec Low Complexity

  46. Codec ID : mp4a-40-2

  47. Duration : 1 h 13 min

  48. Bit rate mode : Constant

  49. Bit rate : 93.4 kb/s

  50. Channel(s) : 2 channels

  51. Channel layout : L R

  52. Sampling rate : 48.0 kHz

  53. Frame rate : 46.875 FPS (1024 SPF)

  54. Compression mode : Lossy

  55. Stream size : 49.0 MiB (4%)

  56. Default : Yes

  57. Alternate group : 1


文件下载


除非特别注明,本文『醉拳苏乞儿[国语配音/中文字幕].Zui.Quan.Su.Qi.Er.2021.WEB-DL.1080p.H264.AAC 1.20GB』来源于互联网机器人自动抓取,非本站原创。 浮游电影网不对本文拥有版权,如有侵犯,请联系邮箱:fuyouu#yandex.com[#换成@]投诉。我们会在15个工作日内删除。 但烦请转载时请标明出处:“本文转载于『浮游电影网』,原文地址:https://www.fuyouu.com/14105.html

评论吧骚年!

发表你的见解   

昵称*

E-mail*(建议输入,以便收到博主回复的提示邮件)

验证码*

您可以使用eMule或eMule Mod(Windows)、aMule(Win、Linux、Mac)等软件下载eD2k链接。。
eMule收藏集(.emulecollection)文件是您选中的所有链接的列表文件。eMule可以直接下载它们。
按住SHIFT键选择可以选中多个选择框。
可用文件名和大小选择器来选择文件。
文件名选择器帮您根据文件名称或后缀来选择文件。不分大小写。
符号使用:
和:空格( )、+
不包含:-
或:|
转义:一对英文引号("");
匹配开头:^
匹配结尾:$
例如:
选中所有名称中包含有“eMule”或“0.49c”字眼,但不包含有“exe”字眼的:emule|0.49c -exe
选中所有名称的开头是“eMule”,结尾是“0.49c”的:^emule 0.49c$
选中所有名称中带有“eMule 0.49c”的(必须是“eMule 0.49c”,中间没有别的字符,不能是“eMule fake 0.49c”),需要转义:"emule 0.49c"
大小选择器帮您根据文件大小选择文件。