当前位置: 首页 >> 国产电影 >> 石榴熟了[国语配音/中文字幕].Shi.Liu.Shu.Le.2021.WEB-DL.4k.H265.AAC 1.72GB >> 正文

石榴熟了[国语配音/中文字幕].Shi.Liu.Shu.Le.2021.WEB-DL.4k.H265.AAC 1.72GB

2021年09月01日 00:07:26     电影发布:来源于网络     电影分类:国产电影     评论(0)    

石榴熟了[国语配音/中文字幕].Shi.Liu.Shu.Le.2021.WEB DL.4k.H265.AAC 1.72GB 家庭片 爱情片 喜剧片 剧情片 国产电影  第1张

◎译 名 石榴熟了之一拍到底 / 一拍到底

◎年 代 2021

◎产 地 中国大陆

◎类 别 剧情 / 喜剧 / 爱情 / 家庭

◎语 言 汉语普通话

◎上映日期 2021-07-14(中国大陆)

◎IMDb链接 https://www.imdb.com/title//

◎豆瓣链接 https://movie.douban.com/subject/35460678/

◎片 长 72分钟

◎导 演 马史 Shi Ma (id:1321568)

◎编 剧 徐晓 Xiao Xu (id:1396976)

◎演 员 叨叨 Dao Dao (id:1361371)

白毛毛 Maomao Bai (id:1361370)

阿娜尔罕 Anarhan (id:1449055)

山来 Lai Shan (id:1449056)

西木西木 Shemshem (id:1449057)

周鹏宇 Zhou Pengyu (id:1460059)

◎标 签 石榴熟了 / 新疆 / 叨叨 / 搞笑 / 新疆特产 / 2021 / 中国大陆 / 网大

◎简 介

一心想当导演的叨叨被老板白毛毛以导演梦为诱惑欺骗打杂,阴差阳错的因为导演”金刚囊“广告一炮而红,后来又因为男扮女装被山总误认为自己的初恋,合伙成立了营销团队,遇到了各种奇葩的客户,由此开启了爆笑广告之旅。叨叨却在此过程中偏离了自己的理想,还让自己所爱的人受伤,叨叨最终回归初心,以电影的形式帮助了一个绝症男孩找到了勇敢治疗的勇气。

  1. ##### MediaInfo ######

  2. General

  3. Complete name : 石榴熟了.Shi.Liu.Shu.Le.2021.WEB-DL.4k.H265.AAC-10003@BBQDDQ.COM.mp4

  4. Format : MPEG-4

  5. Format profile : Base Media

  6. Codec ID : isom (isom/iso2/mp41)

  7. File size : 1.72 GiB

  8. Duration : 1 h 11 min

  9. Overall bit rate mode : Variable

  10. Overall bit rate : 3 428 kb/s

  11. Writing application : Lavf58.29.100


  12. Video

  13. ID : 1

  14. Format : HEVC

  15. Format/Info : High Efficiency Video Coding

  16. Format profile : Main@L5@Main

  17. Codec ID : hev1

  18. Codec ID/Info : High Efficiency Video Coding

  19. Duration : 1 h 11 min

  20. Bit rate : 3 361 kb/s

  21. Width : 3 840 pixels

  22. Height : 2 160 pixels

  23. Display aspect ratio : 16:9

  24. Frame rate mode : Variable

  25. Frame rate : 25.000 FPS

  26. Minimum frame rate : 24.993 FPS

  27. Maximum frame rate : 25.007 FPS

  28. Color space : YUV

  29. Chroma subsampling : 4:2:0

  30. Bit depth : 8 bits

  31. Bits/(Pixel*Frame) : 0.016

  32. Stream size : 1.68 GiB (98%)

  33. Codec configuration box : hvcC


  34. Audio

  35. ID : 2

  36. Format : AAC LC SBR

  37. Format/Info : Advanced Audio Codec Low Complexity with Spectral Band Replication

  38. Commercial name : HE-AAC

  39. Format settings : Implicit

  40. Codec ID : mp4a-40-2

  41. Duration : 1 h 11 min

  42. Bit rate mode : Variable

  43. Bit rate : 62.7 kb/s

  44. Maximum bit rate : 68.2 kb/s

  45. Channel(s) : 2 channels

  46. Channel layout : L R

  47. Sampling rate : 48.0 kHz

  48. Frame rate : 23.438 FPS (2048 SPF)

  49. Compression mode : Lossy

  50. Stream size : 32.1 MiB (2%)

  51. Default : Yes

  52. Alternate group : 1


文件下载


除非特别注明,本文『石榴熟了[国语配音/中文字幕].Shi.Liu.Shu.Le.2021.WEB-DL.4k.H265.AAC 1.72GB』来源于互联网机器人自动抓取,非本站原创。 浮游电影网不对本文拥有版权,如有侵犯,请联系邮箱:fuyouu#yandex.com[#换成@]投诉。我们会在15个工作日内删除。 但烦请转载时请标明出处:“本文转载于『浮游电影网』,原文地址:https://www.fuyouu.com/14104.html

评论吧骚年!

发表你的见解   

昵称*

E-mail*(建议输入,以便收到博主回复的提示邮件)

验证码*

您可以使用eMule或eMule Mod(Windows)、aMule(Win、Linux、Mac)等软件下载eD2k链接。。
eMule收藏集(.emulecollection)文件是您选中的所有链接的列表文件。eMule可以直接下载它们。
按住SHIFT键选择可以选中多个选择框。
可用文件名和大小选择器来选择文件。
文件名选择器帮您根据文件名称或后缀来选择文件。不分大小写。
符号使用:
和:空格( )、+
不包含:-
或:|
转义:一对英文引号("");
匹配开头:^
匹配结尾:$
例如:
选中所有名称中包含有“eMule”或“0.49c”字眼,但不包含有“exe”字眼的:emule|0.49c -exe
选中所有名称的开头是“eMule”,结尾是“0.49c”的:^emule 0.49c$
选中所有名称中带有“eMule 0.49c”的(必须是“eMule 0.49c”,中间没有别的字符,不能是“eMule fake 0.49c”),需要转义:"emule 0.49c"
大小选择器帮您根据文件大小选择文件。