当前位置: 首页 >> 日韩电影 >> 道熙呀[中文字幕].A.Girl.at.My.Door.2014.1080p.BluRay.x265.10bit.DTS 6.03GB >> 正文

道熙呀[中文字幕].A.Girl.at.My.Door.2014.1080p.BluRay.x265.10bit.DTS 6.03GB

2021年09月01日 00:03:49     电影发布:来源于网络     电影分类:日韩电影     评论(0)    

道熙呀[中文字幕].A.Girl.at.My.Door.2014.1080p.BluRay.x265.10bit.DTS 6.03GB 剧情片 日韩电影  第1张

◎译 名 道熙呀 / 道熙啊 / Doheeya / A Girl At My Door

◎片 名 ???

◎年 代 2014

◎产 地 韩国

◎类 别 剧情

◎语 言 韩语

◎上映日期 2014-05-19(戛纳电影节) / 2014-05-22(韩国)

◎IMDb链接 https://www.imdb.com/title/tt3661798/

◎豆瓣评分 7.8/10 (40001人评价)

◎豆瓣链接 https://movie.douban.com/subject/25762566/

◎片 长 119分钟

◎导 演 郑朱莉 July Jung (id:1332744)

◎编 剧 郑朱莉 July Jung (id:1332744)

◎演 员 裴斗娜 Doona Bae (id:1057004)

金赛纶 Sae-ron Kim (id:1274858)

宋清晨 Sae-byeok Song (id:1276155)

张熙珍 Hie-jin Jang (id:1046496)

文成根 Seung Geun Moon (id:1276063)

李姃垠 Jung-eun Lee (id:1356030)

孔明 Myeong Gong (id:1362136)

朴镇宇 Park Jin-woo (id:1376719)

金敏载 Kim Min-jae (id:1381255)

金钟求 Kim Jong-goo (id:1379540)

徐光载 Seo Gwang-jae (id:1381017)

孔浩锡 Ho-seok Kong (id:1457978)

李沧东 Chang-dong Lee (id:1103667)

李准东 Jun-dong Lee (id:1325410)

张领圭 Young-gyu Jang (id:1329974)

金炫锡 Hyun-seok Kim (id:1410766)

◎标 签 韩国 / 同性 / 女性 / 剧情 / 人性 / 文艺 / 2014 / les

◎简 介

不苟言笑的首尔女警官李英男(裴斗娜 饰),因某件事被“流放”到一个偏远闭塞的海港小镇担任为期一年的派出所所长。抵达当地的第一天,英男便遇见了怯懦沉默的小女孩孙道熙(金赛纶 饰)。道熙是当地唯一的青壮年朴龙河收养的孩子,但是朴及其母亲却经常对道熙拳脚相向,女孩在校期间也饱受同学的欺负。某晚,英男从醉酒的朴龙河手中搭救了道熙,自此之后道熙便成为了她的小跟班。之后的一天,朴母死于意外,这让道熙得以暂时躲在英男的家中避难。

在英男的呵护下,女孩的脸上展现了久违的笑容,然而彼时一股暧昧的气氛悄然升起,英男被迫卷入命运的漩涡之中……

◎获奖情况 (共11项)

第67届戛纳电影节 (2014)

金摄影机奖(导演处女作奖)(提名)

└──郑朱莉 (id:1332744)

一种关注单元 一种关注大奖(提名)

└──郑朱莉 (id:1332744)

第35届韩国电影青龙奖 (2014)

最佳新人女演员

└──金赛纶 (id:1274858)

第9届亚洲电影大奖 (2015)

最佳女主角

└──裴斗娜 (id:1057004)

第51届百想艺术大赏 (2015)

电影类 最佳影片(提名)

电影类 最佳女主角(提名)

电影类 最佳男配角(提名)

└──宋清晨 (id:1276155)

电影类 最佳新人导演

└──郑朱莉 (id:1332744)

第51届韩国电影大钟奖 (2014)

最佳新人导演(提名)

└──郑朱莉 (id:1332744)

最佳新人女演员(提名)

└──金赛纶 (id:1274858)

第1届豆瓣电影年度榜单 (2014)

评分最高的韩国电影(提名)

  1. ##### MediaInfo ######

  2. General

  3. Unique ID : 323819633153089888684972787872440838368 (0xF39D648EFFED9A44E61D1533D5D4E8E0)

  4. Complete name : A.Girl.at.My.Door.2014.1080p.BluRay.x265.10bit.DTS-10017@BBQDDQ.COM.mkv

  5. Format : Matroska

  6. Format version : Version 4

  7. File size : 6.03 GiB

  8. Duration : 1 h 59 min

  9. Overall bit rate : 7 234 kb/s

  10. Movie name : 私の少女

  11. Encoded date : UTC 2021-08-30 04:06:21

  12. Writing application : mkvmerge v59.0.0 ('Shining Star') 64-bit

  13. Writing library : libebml v1.4.2 + libmatroska v1.6.4

  14. Cover : Yes

  15. Attachments : cover.jpg


  16. Video

  17. ID : 1

  18. Format : HEVC

  19. Format/Info : High Efficiency Video Coding

  20. Format profile : Main 10@L5@Main

  21. Codec ID : V_MPEGH/ISO/HEVC

  22. Duration : 1 h 59 min

  23. Bit rate : 5 701 kb/s

  24. Width : 1 916 pixels

  25. Height : 1 036 pixels

  26. Display aspect ratio : 1.85:1

  27. Frame rate mode : Constant

  28. Frame rate : 23.976 (24000/1001/53354) FPS

  29. Color space : YUV

  30. Chroma subsampling : 4:2:0

  31. Bit depth : 10 bits

  32. Bits/(Pixel*Frame) : 0.120

  33. Stream size : 4.75 GiB (79%)

  34. Writing library : x265 3.5+2-g2b25c9ba0+45:[Windows][GCC 10.2.0][64 bit] Yuuki 10bit+8bit+12bit

  35. Encoding settings : rc=crf / crf=16.0000 / qcomp=0.60 / qpstep=4 / stats-write=0 / stats-read=0 / no-lossless / no-cu-lossless / aq-mode=3 / aq-strength=0.90 / cbqpoffs=0 / crqpoffs=0 / ipratio=1.40 / pbratio=1.30 / psy-rd=2.00 / psy-rdoq=0.00 / deblock=0:0 / ref=6 / limit-refs=1 / no-limit-modes / bframes=8 / b-adapt=2 / bframe-bias=0 / b-pyramid / b-intra / weightp / weightb / min-keyint=24 / max-keyint=240 / rc-lookahead=24 / gop-lookahead=0 / NTMzNTQ=uuDQuD2mJt9fsCf / scenecut=40 / hist-scenecut=0 / radl=0 / max-cu-size=64 / min-cu-size=8 / me=3 / subme=7 / merange=48 / rdoq-level=0 / rd=4 / rdpenalty=0 / dynamic-rd=0.00 / no-rd-refine / ----- / cutree / sao / no-rect / no-amp / no-open-gop / wpp / no-pmode / no-pme / no-psnr / no-ssim / nr-intra=0 / nr-inter=0 / no-constrained-intra / no-strong-intra-smoothing / max-tu-size=32 / tu-inter-depth=1 / tu-intra-depth=1 / limit-tu=0 / qg-size=32 / qpmax=69 / qpmin=0 / ----- / cpuid=533541111039 / frame-threads=4 / numa-pools=+ / log-level=2 / input-csp=1 / input-res=1916x1036 / interlace=0 / level-idc=0 / high-tier=1 / uhd-bd=0 / no-allow-non-conformance / no-repeat-headers / aud / no-hrd / info / hash=0 / no-temporal-layers / lookahead-slices=0 / no-splice / no-intra-refresh / no-ssim-rd / signhide / no-tskip / max-merge=3 / temporal-mvp / no-frame-dup / no-hme / no-analyze-src-pics / no-sao-non-deblock / selective-sao=4 / early-skip / rskip / no-fast-intra / no-tskip-fast / no-splitrd-skip / zone-count=0 / no-strict-cbr / no-rc-grain / no-const-vbv / sar=0 / overscan=0 / videoformat=5 / range=0 / colorprim=2 / transfer=2 / colormatrix=2 / chromaloc=0 / display-window=0 / cll=0,0 / min-luma=0 / max-luma=1023 / log2-max-poc-lsb=8 / vui-timing-info / vui-hrd-info / slices=1 / no-opt-qp-pps / no-opt-ref-list-length-pps / no-multi-pass-opt-rps / scenecut-bias=0.05 / hist-threshold=0.03 / no-opt-cu-delta-qp / no-aq-motion / no-hdr10 / no-hdr10-opt / no-dhdr10-opt / no-idr-recovery-sei / analysis-reuse-level=0 / analysis-save-reuse-level=0 / analysis-load-reuse-level=0 / scale-factor=0 / refine-intra=0 / refine-inter=0 / refine-mv=1 / refine-ctu-distortion=0 / no-limit-sao / ctu-info=0 / no-lowpass-dct / refine-analysis-type=0 / copy-pic=1 / max-ausize-factor=1.0 / no-dynamic-refine / no-single-sei / no-hevc-aq / no-svt / no-field / qp-adaptation-range=1.00 / scenecut-aware-qp=0conformance-window-offsets / right=0 / bottom=0 / NTMzNTQ= / decoder-max-rate=0 / no-vbv-live-multi-pass

  36. Default : Yes

  37. Forced : No


  38. Audio

  39. ID : 2

  40. ID in the original source medium : 4352 (0x1100)

  41. Format : DTS

  42. Format/Info : Digital Theater Systems

  43. Codec ID : A_DTS

  44. Duration : 1 h 59 min

  45. Bit rate mode : Constant

  46. Bit rate : 1 509 kb/s

  47. Channel(s) : 6 channels

  48. Channel layout : C L R Ls Rs LFE

  49. Sampling rate : 48.0 kHz

  50. Frame rate : 93.750 FPS (512 SPF)

  51. Bit depth : 24 bits

  52. Compression mode : Lossy

  53. Stream size : 1.26 GiB (21%)

  54. Language : Korean

  55. Default : Yes

  56. Forced : No

  57. Original source medium : Blu-ray


  58. Text #1

  59. ID : 3

  60. ID in the original source medium : 4611 (0x1203)

  61. Format : PGS

  62. Muxing mode : zlib

  63. Codec ID : S_HDMV/PGS

  64. Codec ID/Info : Picture based subtitle format used on BDs/HD-DVDs

  65. Duration : 1 h 53 min

  66. Bit rate : 13.4 kb/s

  67. Count of elements : 2144

  68. Stream size : 10.9 MiB (0%)

  69. Title : chs

  70. Language : Chinese

  71. Default : Yes

  72. Forced : No

  73. Original source medium : Blu-ray


  74. Text #2

  75. ID : 4

  76. ID in the original source medium : 4612 (0x1204)

  77. Format : PGS

  78. Muxing mode : zlib

  79. Codec ID : S_HDMV/PGS

  80. Codec ID/Info : Picture based subtitle format used on BDs/HD-DVDs

  81. Duration : 1 h 53 min

  82. Bit rate : 13.5 kb/s

  83. Count of elements : 2144

  84. Stream size : 11.0 MiB (0%)

  85. Title : cht

  86. Language : Chinese

  87. Default : No

  88. Forced : No

  89. Original source medium : Blu-ray


  90. Text #3

  91. ID : 5

  92. ID in the original source medium : 4609 (0x1201)

  93. Format : PGS

  94. Muxing mode : zlib

  95. Codec ID : S_HDMV/PGS

  96. Codec ID/Info : Picture based subtitle format used on BDs/HD-DVDs

  97. Duration : 1 h 51 min

  98. Bit rate : 20.5 kb/s

  99. Count of elements : 1684

  100. Stream size : 16.3 MiB (0%)

  101. Title : eng

  102. Language : English

  103. Default : No

  104. Forced : No

  105. Original source medium : Blu-ray


  106. Menu

  107. 00:00:00.000 : 第 01 章

  108. 00:02:48.710 : 第 02 章

  109. 00:21:32.708 : 第 03 章

  110. 00:31:01.401 : 第 04 章

  111. 00:40:06.404 : 第 05 章

  112. 00:51:11.651 : 第 06 章

  113. 01:01:06.663 : 第 07 章

  114. 01:13:16.058 : 第 08 章

  115. 01:20:46.424 : 第 09 章

  116. 01:30:50.403 : 第 10 章

  117. 01:40:55.716 : 第 11 章

  118. 01:51:38.900 : 第 12 章


文件下载


除非特别注明,本文『道熙呀[中文字幕].A.Girl.at.My.Door.2014.1080p.BluRay.x265.10bit.DTS 6.03GB』来源于互联网机器人自动抓取,非本站原创。 浮游电影网不对本文拥有版权,如有侵犯,请联系邮箱:fuyouu#yandex.com[#换成@]投诉。我们会在15个工作日内删除。 但烦请转载时请标明出处:“本文转载于『浮游电影网』,原文地址:https://www.fuyouu.com/14101.html

评论吧骚年!

发表你的见解   

昵称*

E-mail*(建议输入,以便收到博主回复的提示邮件)

验证码*

您可以使用eMule或eMule Mod(Windows)、aMule(Win、Linux、Mac)等软件下载eD2k链接。。
eMule收藏集(.emulecollection)文件是您选中的所有链接的列表文件。eMule可以直接下载它们。
按住SHIFT键选择可以选中多个选择框。
可用文件名和大小选择器来选择文件。
文件名选择器帮您根据文件名称或后缀来选择文件。不分大小写。
符号使用:
和:空格( )、+
不包含:-
或:|
转义:一对英文引号("");
匹配开头:^
匹配结尾:$
例如:
选中所有名称中包含有“eMule”或“0.49c”字眼,但不包含有“exe”字眼的:emule|0.49c -exe
选中所有名称的开头是“eMule”,结尾是“0.49c”的:^emule 0.49c$
选中所有名称中带有“eMule 0.49c”的(必须是“eMule 0.49c”,中间没有别的字符,不能是“eMule fake 0.49c”),需要转义:"emule 0.49c"
大小选择器帮您根据文件大小选择文件。