当前位置: 首页 >> 国产电影 >> 镇魔司:西域异兽[国语配音/中文字幕].Zhen.Mo.Si.2021.1080p.WEB-DL.50FPS.H265.HDR.DDP 3.53GB >> 正文

镇魔司:西域异兽[国语配音/中文字幕].Zhen.Mo.Si.2021.1080p.WEB-DL.50FPS.H265.HDR.DDP 3.53GB

2021年08月30日 12:29:17     电影发布:来源于网络     电影分类:国产电影     评论(0)    

镇魔司:西域异兽[国语配音/中文字幕].Zhen.Mo.Si.2021.1080p.WEB DL.50FPS.H265.HDR.DDP 3.53GB 古装片 动作片 国产电影  第1张

◎片 名 镇魔司:西域异兽

◎年 代 2021

◎产 地 中国大陆

◎类 别 动作 / 古装

◎语 言 汉语普通话

◎上映日期 2021-08-29(中国大陆)

◎豆瓣评分 /10 from 0 users

◎豆瓣链接 https://movie.douban.com/subject/35561555/

◎片 长 100分钟

◎导 演 霍穗强 Chris

◎编 剧 霍穗强 Chris

◎主 演 何蓝逗 Lan He

王珞嘉 Luojia Wang

李沛霖 Peilin Li

郭佳伊 Jiayi Guo

茜玲娜依

◎标 签 玄幻 | 2021 | 电影 | 中国 | 中国大陆 | 网大 | 大陆

◎简 介

电影讲述大赵王朝四十年,西方蛮族兽主降世风云再起,镇魔司小队平异象行天命,勇征西域诛杀妖邪的故事,展现了镇魔司小队为保卫家国视死如归、荡气回肠的热血成长历程。

  1. ##### MediaInfo ######

  2. General

  3. Complete name : Zhen.Mo.Si.2021.1080p.WEB-DL.50FPS.H265.HDR.DDP-10003@BBQDDQ.COM.mp4

  4. Format : MPEG-4

  5. Format profile : Base Media

  6. Codec ID : isom (isom/iso2/mp41)

  7. File size : 3.53 GiB

  8. Duration : 1 h 40 min

  9. Overall bit rate : 5 045 kb/s

  10. Writing application : Lavf58.68.100


  11. Video

  12. ID : 1

  13. Format : HEVC

  14. Format/Info : High Efficiency Video Coding

  15. Format profile : Main 10@L4@Main

  16. HDR format : SMPTE ST 2086, HDR10 compatible

  17. Codec ID : hev1

  18. Codec ID/Info : High Efficiency Video Coding

  19. Duration : 1 h 40 min

  20. Source duration : 1 h 40 min

  21. Bit rate : 4 522 kb/s

  22. Width : 1 920 pixels

  23. Height : 814 pixels

  24. Display aspect ratio : 2.35:1

  25. Frame rate mode : Variable

  26. Frame rate : 48.000 FPS

  27. Minimum frame rate : 47.974 FPS

  28. Maximum frame rate : 48.026 FPS

  29. Color space : YUV

  30. Chroma subsampling : 4:2:0

  31. Bit depth : 10 bits

  32. Bits/(Pixel*Frame) : 0.060

  33. Stream size : 3.16 GiB (90%)

  34. Source stream size : 3.16 GiB (90%)

  35. Color range : Limited

  36. Color primaries : BT.2020

  37. Transfer characteristics : PQ

  38. Matrix coefficients : BT.2020 non-constant

  39. Mastering display color primaries : Display P3

  40. Mastering display luminance : min: 0.0005 cd/m2, max: 500 cd/m2

  41. mdhd_Duration : 6009312

  42. Codec configuration box : hvcC


  43. Audio #1

  44. ID : 2

  45. Format : AAC LC

  46. Format/Info : Advanced Audio Codec Low Complexity

  47. Codec ID : mp4a-40-2

  48. Duration : 1 h 40 min

  49. Bit rate mode : Constant

  50. Bit rate : 253 kb/s

  51. Channel(s) : 2 channels

  52. Channel layout : L R

  53. Sampling rate : 48.0 kHz

  54. Frame rate : 46.875 FPS (1024 SPF)

  55. Compression mode : Lossy

  56. Stream size : 181 MiB (5%)

  57. Language : Chinese

  58. Default : Yes

  59. Alternate group : 1


  60. Audio #2

  61. ID : 3

  62. Format : E-AC-3

  63. Format/Info : Enhanced AC-3

  64. Commercial name : Dolby Digital Plus

  65. Codec ID : ec-3

  66. Duration : 1 h 40 min

  67. Bit rate mode : Constant

  68. Bit rate : 256 kb/s

  69. Channel(s) : 2 channels

  70. Channel layout : L R

  71. Sampling rate : 48.0 kHz

  72. Frame rate : 31.250 FPS (1536 SPF)

  73. Compression mode : Lossy

  74. Stream size : 183 MiB (5%)

  75. Language : Chinese

  76. Service kind : Complete Main

  77. Default : No

  78. Alternate group : 1


文件下载


除非特别注明,本文『镇魔司:西域异兽[国语配音/中文字幕].Zhen.Mo.Si.2021.1080p.WEB-DL.50FPS.H265.HDR.DDP 3.53GB』来源于互联网机器人自动抓取,非本站原创。 浮游电影网不对本文拥有版权,如有侵犯,请联系邮箱:fuyouu#yandex.com[#换成@]投诉。我们会在15个工作日内删除。 但烦请转载时请标明出处:“本文转载于『浮游电影网』,原文地址:https://www.fuyouu.com/14053.html

评论吧骚年!

发表你的见解   

昵称*

E-mail*(建议输入,以便收到博主回复的提示邮件)

验证码*

您可以使用eMule或eMule Mod(Windows)、aMule(Win、Linux、Mac)等软件下载eD2k链接。。
eMule收藏集(.emulecollection)文件是您选中的所有链接的列表文件。eMule可以直接下载它们。
按住SHIFT键选择可以选中多个选择框。
可用文件名和大小选择器来选择文件。
文件名选择器帮您根据文件名称或后缀来选择文件。不分大小写。
符号使用:
和:空格( )、+
不包含:-
或:|
转义:一对英文引号("");
匹配开头:^
匹配结尾:$
例如:
选中所有名称中包含有“eMule”或“0.49c”字眼,但不包含有“exe”字眼的:emule|0.49c -exe
选中所有名称的开头是“eMule”,结尾是“0.49c”的:^emule 0.49c$
选中所有名称中带有“eMule 0.49c”的(必须是“eMule 0.49c”,中间没有别的字符,不能是“eMule fake 0.49c”),需要转义:"emule 0.49c"
大小选择器帮您根据文件大小选择文件。