当前位置: 首页 >> 欧美电影 >> 笨蛋[中文字幕].Knucklehead.2010.1080p.BluRay.DD5.1.x265-10bit 10.00GB >> 正文

笨蛋[中文字幕].Knucklehead.2010.1080p.BluRay.DD5.1.x265-10bit 10.00GB

2021年08月30日 12:23:47     电影发布:来源于网络     电影分类:欧美电影     评论(0)    

笨蛋[中文字幕].Knucklehead.2010.1080p.BluRay.DD5.1.x265 10bit 10.00GB 喜剧片 剧情片 欧美电影  第1张

◎译 名 笨蛋

◎片 名 Knucklehead

◎年 代 2010

◎产 地 美国

◎类 别 剧情 / 喜剧

◎语 言 英语

◎上映日期 2010-10-22(美国)

◎IMDb链接 https://www.imdb.com/title/tt1524131/

◎豆瓣评分 6.5/10 (790人评价)

◎豆瓣链接 https://movie.douban.com/subject/4082247/

◎片 长 100分钟

◎导 演 迈克尔·W·沃特金斯 Michael W. Watkins (id:1300491)

◎编 剧 亚当·里夫金 Adam Rifkin (id:1295655)

◎演 员 马克·费厄斯坦 Mark Feuerstein (id:1016661)

Allison Victoria (id:1271177)

Elizabeth McNulty (id:1264475)

Christine Standfill (id:1261045)

劳丽·李 Laurie Lee (id:1260805)

罗德尼·赫伯特 Rodney Hebert (id:1242545)

特里·李·史密斯 Terry Lee Smith (id:1273073)

詹姆斯·杜蒙特 James DuMont (id:1025390)

绍尔·鲁宾内克 Saul Rubinek (id:1010632)

保罗·怀特 Paul Wight (id:1167045)

梅罗拉·哈丁 Melora Hardin (id:1010566)

莱斯特·斯派特 Lester Speight (id:1331195)

杰克·奥斯汀·沃克 Jake Austin Walker (id:1339391)

肖恩·保罗·布劳德 Sean Paul Braud (id:1387746)

Lacey Minchew (id:1238990)

Chaz Smith (id:1238867)

迈克·阿格雷斯塔 Mike Agresta (id:1237769)

瑞贝卡·克雷斯科夫 Rebecca Creskoff (id:1071483)

韦恩·费拉拉 Wayne Ferrara (id:1079520)

道格拉斯·M·格里芬 Douglas M. Griffin (id:1093003)

丹尼尔文森特 Daniel Vincent (id:1037575)

兰斯·E·尼克尔斯 Lance E. Nichols (id:1132652)

Spice Williams-Crosby Spice Williams-Crosby (id:1159037)

丹尼斯·法里纳 Dennis Farina (id:1031993)

库尔特·多斯 Kurt Doss (id:1175202)

拉腊·格赖斯 Lara Grice (id:1182096)

安东尼·迈克尔·弗雷德里克 Anthony Michael Frederick (id:1187430)

鲍比·J·汤普森 Bobb'e J. Thompson (id:1031839)

夏恩·帕特洛 Shane Partlow (id:1029175)

威尔·帕顿 Will Patton (id:1019066)

Raziel Jordan (id:1231787)

达塞尔·怀特·莫雷诺 Darcel White Moreno (id:1233346)

Gaven Tomas' Brooks (id:1271860)

Jim Johnston Jim Johnston (id:1287827)

James Raymond James Raymond (id:1147795)

盖伊·费尔南德斯 Guy Fernandez (id:1426161)

Kenneth Zunder Kenneth Zunder (id:1301789)

丹尼斯·查米恩 Denise Chamian (id:1280408)

Amy Wood (id:1231477)

Aimee Stuit Aimee Stuit (id:1203329)

Jason Altieri Jason Altieri (id:1058410)

Nick Satriano Nick Satriano (id:1001542)

George Macri George Macri (id:1124081)

Juan Jesus Garcia Juan Jesus Garcia (id:1200976)

◎标 签 喜剧 / 美国 / 美国电影 / 温情 / 搞笑 / 励志 / 笨蛋 / 2010

◎简 介

身高超过两米、体重将近五百磅的沃特(The Big Show 饰)自幼生长在圣托马斯孤儿院里,业已35岁的他至今仍在孤儿院内生活,小男孩汉瑞是他最好的朋友。某天,一场事故烧毁了孤儿院的厨房,按照相关法律这里面临着被关闭的命运。为了让好友和其他孩子不至于无家可归,沃特决定承担起筹措资金修缮厨房的重任。与此同时,格斗教练埃迪·沙利文也正被欠款所困扰。偶然机缘让他结识体形庞大的沃特,他决心将其训练成格斗高手,然后前往新奥尔良参加业余专业混合格斗冠军赛,并赢得奖金。为了共同的目的,这两个男人以及孤儿院的女员工玛丽一同朝着新奥尔良进发……

本片主演The Big Show是世界摔角娱乐联盟(World Wrestling Entertaiment,简称WWE)的重量级摔角明星。

  1. ##### MediaInfo ######

  2. General

  3. Unique ID : 247410473750983906235805278314248071315 (0xBA2186248CBDA46731D014B5EC20E893)

  4. Complete name : Knucklehead.2010.1080p.BluRay.DD5.1.x265-10bit-10007@BBQDDQ.COM.mkv

  5. Format : Matroska

  6. Format version : Version 4

  7. File size : 10.00 GiB

  8. Duration : 1 h 40 min

  9. Overall bit rate : 14.3 Mb/s

  10. Movie name : Knucklehead 2010 1080p BluRay DD5.1 x265-10bit-10007@BBQDDQ.COM

  11. Encoded date : UTC 2021-08-29 04:58:58

  12. Writing application : mkvmerge v38.0.0 ('The Silent Type') 64-bit

  13. Writing library : libebml v1.3.9 + libmatroska v1.5.2


  14. Video

  15. ID : 1

  16. Format : HEVC

  17. Format/Info : High Efficiency Video Coding

  18. Format profile : Main 10@L5.1@High

  19. Codec ID : V_MPEGH/ISO/HEVC

  20. Duration : 1 h 40 min

  21. Bit rate : 13.6 Mb/s

  22. Width : 1 920 pixels

  23. Height : 1 040 pixels

  24. Display aspect ratio : 1.85:1

  25. Frame rate mode : Constant

  26. Frame rate : 23.976 (24000/1001/53354) FPS

  27. Color space : YUV

  28. Chroma subsampling : 4:2:0

  29. Bit depth : 10 bits

  30. Bits/(Pixel*Frame) : 0.284

  31. Stream size : 9.52 GiB (95%)

  32. Title : @HDSky

  33. Writing library : x265 - H.265/HEVC codec

  34. Default : Yes

  35. Forced : No


  36. Audio

  37. ID : 2

  38. Format : AC-3

  39. Format/Info : Audio Coding 3

  40. Commercial name : Dolby Digital

  41. Codec ID : A_AC3

  42. Duration : 1 h 40 min

  43. Bit rate mode : Constant

  44. Bit rate : 640 kb/s

  45. Channel(s) : 6 channels

  46. Channel layout : L R C LFE Ls Rs

  47. Sampling rate : 48.0 kHz

  48. Frame rate : 31.250 FPS (1536 SPF)

  49. Compression mode : Lossy

  50. Stream size : 458 MiB (4%)

  51. Title : English

  52. Language : English

  53. Service kind : Complete Main

  54. Default : Yes

  55. Forced : No


  56. Text #1

  57. ID : 3

  58. Format : PGS

  59. Muxing mode : zlib

  60. Codec ID : S_HDMV/PGS

  61. Codec ID/Info : Picture based subtitle format used on BDs/HD-DVDs

  62. Duration : 1 h 33 min

  63. Bit rate : 38.2 kb/s

  64. Count of elements : 2860

  65. Stream size : 25.5 MiB (0%)

  66. Title : CHS

  67. Language : Chinese

  68. Default : Yes

  69. Forced : No


  70. Text #2

  71. ID : 4

  72. Format : PGS

  73. Muxing mode : zlib

  74. Codec ID : S_HDMV/PGS

  75. Codec ID/Info : Picture based subtitle format used on BDs/HD-DVDs

  76. Duration : 1 h 33 min

  77. Bit rate : 39.0 kb/s

  78. Count of elements : 2860

  79. Stream size : 26.0 MiB (0%)

  80. Title : CHT

  81. Language : Chinese

  82. Default : No

  83. Forced : No


  84. Menu

  85. 00:00:00.000 : en:Chapter 01

  86. 00:04:26.932 : en:Chapter 02

  87. 00:08:23.168 : en:Chapter 03

  88. 00:12:03.471 : en:Chapter 04

  89. 00:14:54.268 : en:Chapter 05

  90. 00:18:15.426 : en:Chapter 06

  91. 00:22:44.070 : en:Chapter 07

  92. 00:29:35.940 : en:Chapter 08

  93. 00:35:14.445 : en:Chapter 09

  94. 00:39:33.161 : en:Chapter 10

  95. 00:44:54.358 : en:Chapter 11

  96. 00:52:21.972 : en:Chapter 12

  97. 00:55:38.208 : en:Chapter 13

  98. 01:00:12.317 : en:Chapter 14

  99. 01:06:10.675 : en:Chapter 15

  100. 01:16:54.318 : en:Chapter 16

  101. 01:24:54.631 : en:Chapter 17

  102. 01:32:58.863 : en:Chapter 18

  103. 01:34:19.444 : en:Chapter 19


文件下载


除非特别注明,本文『笨蛋[中文字幕].Knucklehead.2010.1080p.BluRay.DD5.1.x265-10bit 10.00GB』来源于互联网机器人自动抓取,非本站原创。 浮游电影网不对本文拥有版权,如有侵犯,请联系邮箱:fuyouu#yandex.com[#换成@]投诉。我们会在15个工作日内删除。 但烦请转载时请标明出处:“本文转载于『浮游电影网』,原文地址:https://www.fuyouu.com/14050.html

评论吧骚年!

发表你的见解   

昵称*

E-mail*(建议输入,以便收到博主回复的提示邮件)

验证码*

您可以使用eMule或eMule Mod(Windows)、aMule(Win、Linux、Mac)等软件下载eD2k链接。。
eMule收藏集(.emulecollection)文件是您选中的所有链接的列表文件。eMule可以直接下载它们。
按住SHIFT键选择可以选中多个选择框。
可用文件名和大小选择器来选择文件。
文件名选择器帮您根据文件名称或后缀来选择文件。不分大小写。
符号使用:
和:空格( )、+
不包含:-
或:|
转义:一对英文引号("");
匹配开头:^
匹配结尾:$
例如:
选中所有名称中包含有“eMule”或“0.49c”字眼,但不包含有“exe”字眼的:emule|0.49c -exe
选中所有名称的开头是“eMule”,结尾是“0.49c”的:^emule 0.49c$
选中所有名称中带有“eMule 0.49c”的(必须是“eMule 0.49c”,中间没有别的字符,不能是“eMule fake 0.49c”),需要转义:"emule 0.49c"
大小选择器帮您根据文件大小选择文件。