当前位置: 首页 >> 欧美电影 >> 小混乱[中文字幕].A.Little.Chaos.2014.1080p.BluRay.x265.10bit.DTS 6.94GB >> 正文

小混乱[中文字幕].A.Little.Chaos.2014.1080p.BluRay.x265.10bit.DTS 6.94GB

2021年08月30日 12:18:06     电影发布:来源于网络     电影分类:欧美电影     评论(0)    

小混乱[中文字幕].A.Little.Chaos.2014.1080p.BluRay.x265.10bit.DTS 6.94GB 爱情片 喜剧片 剧情片 欧美电影  第1张

◎译 名 小混乱 / 美人情园(台) / 凡尔赛的小风波(港)

◎片 名 A Little Chaos

◎年 代 2014

◎产 地 英国

◎类 别 剧情 / 喜剧 / 爱情

◎语 言 英语

◎上映日期 2014-09-13(多伦多电影节) / 2015-04-17(英国)

◎IMDb链接 https://www.imdb.com/title/tt2639254/

◎豆瓣评分 6.6/10 (4102人评价)

◎豆瓣链接 https://movie.douban.com/subject/21349301/

◎片 长 116分钟

◎导 演 艾伦·瑞克曼 Alan Rickman (id:1025153)

◎演 员 凯特·温丝莱特 Kate Winslet (id:1054446)

海伦·麦克洛瑞 Helen McCrory (id:1025197)

斯坦利·图齐 Stanley Tucci (id:1040517)

艾伦·瑞克曼 Alan Rickman (id:1025153)

詹妮弗·艾莉 Jennifer Ehle (id:1012506)

马提亚斯·修奈尔 Matthias Schoenaerts (id:1148622)

史蒂芬·威丁顿 Steven Waddington (id:1319284)

丹尼·韦伯 Danny Webb (id:1162175)

保琳·莫兰 Pauline Moran (id:1322977)

菲丽达·劳 Phyllida Law (id:1048232)

埃利斯戴尔·皮特里 Alistair Petrie (id:1137269)

亚当·詹姆斯 Adam James (id:1316929)

威廉·阿兰姆 William Allam (id:1432726)

宝拉·保罗 Paula Paul (id:1354534)

Joan Bergin Joan Bergin (id:1278444)

◎标 签 英国 / KateWinslet / 爱情 / 英国电影 / AlanRickman / 剧情 / 文艺 / 2014

◎简 介

故事发生在17世纪的法国。著名的园林设计师安德烈(马提亚斯·修奈尔茨 Matthias Schoenaerts 饰)在女园艺师萨宾娜(凯特·温丝莱特 Kate Winslet 饰)的身上看到了国人的天赋,于是决定举荐她,负责替路易十四(艾伦·里克曼 Alan Rickman 饰)翻修凡尔赛宫的宏伟项目。

在当时,女园艺师是一个备受歧视的职业,然而萨宾娜并不管旁人异样的目光,而是用自己出色的作品堵上了他们的嘴巴。在此过程中,路易十四爱上了聪慧机灵的萨宾娜,可是萨宾娜真正喜欢的,却是已经有了妻室的安德烈。很快,萨宾娜的爱慕之情便曝光了,她遭到了无数的道德谴责,不仅如此,安德烈的妻子勒诺特尔夫人(海伦·麦克洛瑞 Helen McCrory 饰)还发誓要向她复仇。

◎获奖情况 (共1项)

第39届多伦多国际电影节 (2014)

观众选择奖(提名)

└──艾伦·瑞克曼 (id:1025153)

  1. ##### MediaInfo ######

  2. General

  3. Unique ID : 333224674552080195600430200247489010263 (0xFAB0BCE68BCCFD3231E074847C1E1A57)

  4. Complete name : A.Little.Chaos.2014.1080p.BluRay.x265.10bit.DTS-10017@BBQDDQ.COM.mkv

  5. Format : Matroska

  6. Format version : Version 4

  7. File size : 6.94 GiB

  8. Duration : 1 h 52 min

  9. Overall bit rate : 8 798 kb/s

  10. Movie name : A Little Chaos

  11. Encoded date : UTC 2021-08-29 09:22:03

  12. Writing application : mkvmerge v60.0.0 ('Are We Copies?') 64-bit

  13. Writing library : libebml v1.4.2 + libmatroska v1.6.4

  14. Cover : Yes

  15. Attachments : cover.jpg


  16. Video

  17. ID : 1

  18. Format : HEVC

  19. Format/Info : High Efficiency Video Coding

  20. Format profile : Main 10@L4@Main

  21. Codec ID : V_MPEGH/ISO/HEVC

  22. Duration : 1 h 52 min

  23. Bit rate : 7 230 kb/s

  24. Width : 1 920 pixels

  25. Height : 802 pixels

  26. Display aspect ratio : 2.40:1

  27. Frame rate mode : Constant

  28. Frame rate : 23.976 (24000/1001/53354) FPS

  29. Color space : YUV

  30. Chroma subsampling : 4:2:0

  31. Bit depth : 10 bits

  32. Bits/(Pixel*Frame) : 0.196

  33. Stream size : 5.70 GiB (82%)

  34. Writing library : x265 3.5+2-g2b25c9ba0+45:[Windows][GCC 10.2.0][64 bit] Yuuki 10bit+8bit+12bit

  35. Encoding settings : rc=crf / crf=17.0000 / qcomp=0.65 / qpstep=4 / stats-write=0 / stats-read=0 / no-lossless / no-cu-lossless / aq-mode=3 / aq-strength=0.80 / cbqpoffs=0 / crqpoffs=0 / ipratio=1.40 / pbratio=1.30 / psy-rd=2.00 / psy-rdoq=0.00 / deblock=0:0 / ref=6 / limit-refs=1 / no-limit-modes / bframes=8 / b-adapt=2 / bframe-bias=0 / b-pyramid / b-intra / weightp / weightb / min-keyint=24 / max-keyint=240 / rc-lookahead=24 / gop-lookahead=0 / NTMzNTQ=uuDQuD2mJt9fsCf / scenecut=40 / hist-scenecut=0 / radl=0 / max-cu-size=64 / min-cu-size=8 / me=3 / subme=7 / merange=48 / rdoq-level=0 / rd=4 / rdpenalty=0 / dynamic-rd=0.00 / no-rd-refine / ----- / cutree / sao / no-rect / no-amp / no-open-gop / wpp / no-pmode / pme / no-psnr / no-ssim / nr-intra=0 / nr-inter=0 / no-constrained-intra / no-strong-intra-smoothing / max-tu-size=32 / tu-inter-depth=1 / tu-intra-depth=1 / limit-tu=0 / qg-size=32 / qpmax=69 / qpmin=0 / ----- / cpuid=533541111039 / frame-threads=4 / numa-pools=+ / log-level=2 / input-csp=1 / input-res=1920x802 / interlace=0 / level-idc=0 / high-tier=1 / uhd-bd=0 / no-allow-non-conformance / no-repeat-headers / aud / no-hrd / info / hash=0 / no-temporal-layers / lookahead-slices=0 / no-splice / no-intra-refresh / no-ssim-rd / signhide / no-tskip / max-merge=3 / temporal-mvp / no-frame-dup / no-hme / no-analyze-src-pics / no-sao-non-deblock / selective-sao=4 / early-skip / rskip / no-fast-intra / no-tskip-fast / no-splitrd-skip / zone-count=0 / no-strict-cbr / no-rc-grain / no-const-vbv / sar=0 / overscan=0 / videoformat=5 / range=0 / colorprim=2 / transfer=2 / colormatrix=2 / chromaloc=0 / display-window=0 / cll=0,0 / min-luma=0 / max-luma=1023 / log2-max-poc-lsb=8 / vui-timing-info / vui-hrd-info / slices=1 / no-opt-qp-pps / no-opt-ref-list-length-pps / no-multi-pass-opt-rps / scenecut-bias=0.05 / hist-threshold=0.03 / no-opt-cu-delta-qp / no-aq-motion / no-hdr10 / no-hdr10-opt / no-dhdr10-opt / no-idr-recovery-sei / analysis-reuse-level=0 / analysis-save-reuse-level=0 / analysis-load-reuse-level=0 / scale-factor=0 / refine-intra=0 / refine-inter=0 / refine-mv=1 / refine-ctu-distortion=0 / no-limit-sao / ctu-info=0 / no-lowpass-dct / refine-analysis-type=0 / copy-pic=1 / max-ausize-factor=1.0 / no-dynamic-refine / no-single-sei / no-hevc-aq / no-svt / no-field / qp-adaptation-range=1.00 / scenecut-aware-qp=0conformance-window-offsets / right=0 / bottom=0 / NTMzNTQ= / decoder-max-rate=0 / no-vbv-live-multi-pass

  36. Default : Yes

  37. Forced : No


  38. Audio

  39. ID : 2

  40. ID in the original source medium : 4352 (0x1100)

  41. Format : DTS

  42. Format/Info : Digital Theater Systems

  43. Codec ID : A_DTS

  44. Duration : 1 h 52 min

  45. Bit rate mode : Constant

  46. Bit rate : 1 509 kb/s

  47. Channel(s) : 6 channels

  48. Channel layout : C L R Ls Rs LFE

  49. Sampling rate : 48.0 kHz

  50. Frame rate : 93.750 FPS (512 SPF)

  51. Bit depth : 24 bits

  52. Compression mode : Lossy

  53. Stream size : 1.19 GiB (17%)

  54. Language : English

  55. Default : Yes

  56. Forced : No

  57. Original source medium : Blu-ray


  58. Text #1

  59. ID : 3

  60. ID in the original source medium : 4611 (0x1203)

  61. Format : PGS

  62. Muxing mode : zlib

  63. Codec ID : S_HDMV/PGS

  64. Codec ID/Info : Picture based subtitle format used on BDs/HD-DVDs

  65. Duration : 1 h 44 min

  66. Bit rate : 33.4 kb/s

  67. Count of elements : 2435

  68. Stream size : 25.1 MiB (0%)

  69. Title : chs&eng

  70. Language : Chinese

  71. Default : Yes

  72. Forced : No

  73. Original source medium : Blu-ray


  74. Text #2

  75. ID : 4

  76. ID in the original source medium : 4612 (0x1204)

  77. Format : PGS

  78. Muxing mode : zlib

  79. Codec ID : S_HDMV/PGS

  80. Codec ID/Info : Picture based subtitle format used on BDs/HD-DVDs

  81. Duration : 1 h 44 min

  82. Bit rate : 32.4 kb/s

  83. Count of elements : 2435

  84. Stream size : 24.3 MiB (0%)

  85. Title : cht&eng

  86. Language : Chinese

  87. Default : No

  88. Forced : No

  89. Original source medium : Blu-ray


  90. Text #3

  91. ID : 5

  92. ID in the original source medium : 4613 (0x1205)

  93. Format : PGS

  94. Muxing mode : zlib

  95. Codec ID : S_HDMV/PGS

  96. Codec ID/Info : Picture based subtitle format used on BDs/HD-DVDs

  97. Duration : 1 h 44 min

  98. Bit rate : 20.3 kb/s

  99. Count of elements : 2435

  100. Stream size : 15.2 MiB (0%)

  101. Title : chs

  102. Language : Chinese

  103. Default : No

  104. Forced : No

  105. Original source medium : Blu-ray


  106. Text #4

  107. ID : 6

  108. ID in the original source medium : 4614 (0x1206)

  109. Format : PGS

  110. Muxing mode : zlib

  111. Codec ID : S_HDMV/PGS

  112. Codec ID/Info : Picture based subtitle format used on BDs/HD-DVDs

  113. Duration : 1 h 44 min

  114. Bit rate : 20.5 kb/s

  115. Count of elements : 2435

  116. Stream size : 15.4 MiB (0%)

  117. Title : cht

  118. Language : Chinese

  119. Default : No

  120. Forced : No

  121. Original source medium : Blu-ray


  122. Text #5

  123. ID : 7

  124. ID in the original source medium : 4608 (0x1200)

  125. Format : PGS

  126. Muxing mode : zlib

  127. Codec ID : S_HDMV/PGS

  128. Codec ID/Info : Picture based subtitle format used on BDs/HD-DVDs

  129. Duration : 1 h 44 min

  130. Bit rate : 30.6 kb/s

  131. Count of elements : 2384

  132. Stream size : 22.9 MiB (0%)

  133. Title : eng

  134. Language : English

  135. Default : No

  136. Forced : No

  137. Original source medium : Blu-ray


  138. Menu

  139. 00:00:00.000 : Chapter 01

  140. 00:06:19.337 : Chapter 02

  141. 00:12:47.600 : Chapter 03

  142. 00:20:45.285 : Chapter 04

  143. 00:24:40.437 : Chapter 05

  144. 00:29:56.044 : Chapter 06

  145. 00:34:50.254 : Chapter 07

  146. 00:39:58.604 : Chapter 08

  147. 00:43:50.586 : Chapter 09

  148. 00:49:51.780 : Chapter 10

  149. 00:54:49.828 : Chapter 11

  150. 01:03:05.573 : Chapter 12

  151. 01:10:09.288 : Chapter 13

  152. 01:16:37.551 : Chapter 14

  153. 01:19:35.604 : Chapter 15

  154. 01:23:32.632 : Chapter 16

  155. 01:28:32.849 : Chapter 17

  156. 01:35:11.622 : Chapter 18

  157. 01:41:32.336 : Chapter 19

  158. 01:47:11.883 : Chapter 20



文件下载


除非特别注明,本文『小混乱[中文字幕].A.Little.Chaos.2014.1080p.BluRay.x265.10bit.DTS 6.94GB』来源于互联网机器人自动抓取,非本站原创。 浮游电影网不对本文拥有版权,如有侵犯,请联系邮箱:fuyouu#yandex.com[#换成@]投诉。我们会在15个工作日内删除。 但烦请转载时请标明出处:“本文转载于『浮游电影网』,原文地址:https://www.fuyouu.com/14046.html

评论吧骚年!

发表你的见解   

昵称*

E-mail*(建议输入,以便收到博主回复的提示邮件)

验证码*

您可以使用eMule或eMule Mod(Windows)、aMule(Win、Linux、Mac)等软件下载eD2k链接。。
eMule收藏集(.emulecollection)文件是您选中的所有链接的列表文件。eMule可以直接下载它们。
按住SHIFT键选择可以选中多个选择框。
可用文件名和大小选择器来选择文件。
文件名选择器帮您根据文件名称或后缀来选择文件。不分大小写。
符号使用:
和:空格( )、+
不包含:-
或:|
转义:一对英文引号("");
匹配开头:^
匹配结尾:$
例如:
选中所有名称中包含有“eMule”或“0.49c”字眼,但不包含有“exe”字眼的:emule|0.49c -exe
选中所有名称的开头是“eMule”,结尾是“0.49c”的:^emule 0.49c$
选中所有名称中带有“eMule 0.49c”的(必须是“eMule 0.49c”,中间没有别的字符,不能是“eMule fake 0.49c”),需要转义:"emule 0.49c"
大小选择器帮您根据文件大小选择文件。