当前位置: 首页 >> 海外电影 >> 侠女[中文字幕].A.Touch.of.Zen.1970.1080p.FriDay.WEB-DL.H264.AAC 4.81GB >> 正文

侠女[中文字幕].A.Touch.of.Zen.1970.1080p.FriDay.WEB-DL.H264.AAC 4.81GB

2021年08月30日 12:16:50     电影发布:来源于网络     电影分类:海外电影     评论(0)    

侠女[中文字幕].A.Touch.of.Zen.1970.1080p.FriDay.WEB DL.H264.AAC 4.81GB 武侠片 古装片 动作片 剧情片 海外电影  第1张

◎译 名 侠女/A Touch of Zen/灵山剑影

◎片 名 俠女

◎年 代 1970

◎产 地 中国台湾,中国香港

◎类 别 剧情 / 动作 / 武侠 / 古装

◎语 言 汉语普通话

◎上映日期 1970-07-10(中国台湾) / 1971-11-18(中国香港)

◎豆瓣评分 8.5/10 from 19992 users

◎豆瓣链接 https://movie.douban.com/subject/1306490/

◎片 长 179分钟

◎导 演 胡金铨 King Hu

◎编 剧 胡金铨 King Hu / 蒲松龄 Songling Pu

◎主 演 徐枫 Feng Hsu

石隽 Chun Shih

白鹰 Ying Bai

田鹏 Peng Tien

曹健 Chien Tsao

苗天 Tien Miao

张冰玉 Ping-Yu Chang

薛汉 Han Hsieh

乔宏 Roy Chiao

林正英 Ching-Ying Lam

洪金宝 Sammo Hung Kam-Bo

韩英杰 Ying-Chieh Han

郝履仁 Li Jen Ho

陈会毅 Billy Chan

吴明才 Ming-tsai Wu

万重山 Chung Shan Man

王瑞 Shui Wang

高明 Kao Ming

山茅 Mao Shan

贾鲁石 Lu-Shih Ku

鲁直 Shih Lu

杜伟和 Wei Ho Tu

谢仲谋 Chung Mou Hsieh

李逵 Kwei Li

刘楚 Chu Liu

张允文 Yun Wen Chang

徐庆春 Chui Hing-Chun

成龙 Jackie Chan

◎标 签 胡金铨 | 武侠 | 台湾 | 动作 | 香港 | 侠女 | 香港电影 | 徐枫

◎简 介

没落书生顾省斋(石隽 饰)在小镇经营字画铺“代写书信春联”过活,奉养家中老母,偶然结识了家附近废屯堡新搬来的杨之云(徐枫 饰),与其暗生情愫。恰逢东厂人士欧阳年(田鹏 饰)前来打探,其与附近算命瞎子(白鹰 饰)动手,被顾生与其母遇见,遂将受伤的算命瞎子就近带到杨之云处, 从而得知他们的真正身份——因弹劾宦官魏忠贤而被杖毙的左副都御史杨涟之女杨慧贞;保卫忠良之后的石门樵将军。因二人都被朝廷通缉,东厂追杀,顾生就此在屯堡设下重重计谋,又得高僧慧圆(乔宏 饰)帮助,以期摆脱东厂追兵,逃出生天。

电影根据蒲松龄《聊斋志异》中《侠女》一篇改编。

◎获奖情况

第28届戛纳电影节 ?(1975)

主竞赛单元金棕榈奖(提名) 胡金铨

技术大奖 胡金铨

第10届台北金马影展 ?(1972)

金马奖最佳美术设计 陈上林

  1. ##### MediaInfo ######

  2. General

  3. Unique ID : 339373930166747851090195642038719057587 (0xFF510A9C27F2ECCE8A6CA8F36F038EB3)

  4. Complete name : A.Touch.of.Zen.1970.1080p.FriDay.WEB-DL.H264.AAC-10001@BBQDDQ.COM.mkv

  5. Format : Matroska

  6. Format version : Version 4

  7. File size : 4.81 GiB

  8. Duration : 2 h 58 min

  9. Overall bit rate : 3 854 kb/s

  10. Encoded date : UTC 2021-08-29 03:32:46

  11. Writing application : mkvmerge v56.1.0 ('My Friend') 64-bit

  12. Writing library : libebml v1.4.2 + libmatroska v1.6.4


  13. Video

  14. ID : 1

  15. Format : AVC

  16. Format/Info : Advanced Video Codec

  17. Format profile : High@L4.1

  18. Format settings : CABAC / 1 Ref Frames

  19. Format settings, CABAC : Yes

  20. Format settings, Reference frames : 1 frame

  21. Format settings, GOP : M=1, N=60

  22. Codec ID : V_MPEG4/ISO/AVC

  23. Duration : 2 h 58 min

  24. Bit rate mode : Constant

  25. Bit rate : 3 726 kb/s

  26. Nominal bit rate : 4 000 kb/s

  27. Width : 1 920 pixels

  28. Height : 1 080 pixels

  29. Display aspect ratio : 16:9

  30. Frame rate mode : Constant

  31. Frame rate : 29.970 (30000/1001/53354) FPS

  32. Color space : YUV

  33. Chroma subsampling : 4:2:0

  34. Bit depth : 8 bits

  35. Scan type : Progressive

  36. Bits/(Pixel*Frame) : 0.060

  37. Stream size : 4.65 GiB (97%)

  38. Language : Chinese

  39. Default : Yes

  40. Forced : No


  41. Audio

  42. ID : 2

  43. Format : AAC LC

  44. Format/Info : Advanced Audio Codec Low Complexity

  45. Codec ID : A_AAC-2

  46. Duration : 2 h 58 min

  47. Bit rate : 125 kb/s

  48. Channel(s) : 2 channels

  49. Channel layout : L R

  50. Sampling rate : 48.0 kHz

  51. Frame rate : 46.875 FPS (1024 SPF)

  52. Compression mode : Lossy

  53. Stream size : 160 MiB (3%)

  54. Title : Mandarin

  55. Language : Chinese

  56. Default : Yes

  57. Forced : No


  58. Text #1

  59. ID : 3

  60. Format : UTF-8

  61. Codec ID : S_TEXT/UTF8

  62. Codec ID/Info : UTF-8 Plain Text

  63. Duration : 2 h 47 min

  64. Bit rate : 16 b/s

  65. Count of elements : 1019

  66. Stream size : 19.9 KiB (0%)

  67. Title : Chinese Simplified

  68. Language : Chinese

  69. Default : Yes

  70. Forced : No


  71. Text #2

  72. ID : 4

  73. Format : UTF-8

  74. Codec ID : S_TEXT/UTF8

  75. Codec ID/Info : UTF-8 Plain Text

  76. Duration : 2 h 47 min

  77. Bit rate : 16 b/s

  78. Count of elements : 1019

  79. Stream size : 19.9 KiB (0%)

  80. Title : Chinese Traditional

  81. Language : Chinese

  82. Default : No

  83. Forced : No


文件下载


除非特别注明,本文『侠女[中文字幕].A.Touch.of.Zen.1970.1080p.FriDay.WEB-DL.H264.AAC 4.81GB』来源于互联网机器人自动抓取,非本站原创。 浮游电影网不对本文拥有版权,如有侵犯,请联系邮箱:fuyouu#yandex.com[#换成@]投诉。我们会在15个工作日内删除。 但烦请转载时请标明出处:“本文转载于『浮游电影网』,原文地址:https://www.fuyouu.com/14045.html

评论吧骚年!

发表你的见解   

昵称*

E-mail*(建议输入,以便收到博主回复的提示邮件)

验证码*

您可以使用eMule或eMule Mod(Windows)、aMule(Win、Linux、Mac)等软件下载eD2k链接。。
eMule收藏集(.emulecollection)文件是您选中的所有链接的列表文件。eMule可以直接下载它们。
按住SHIFT键选择可以选中多个选择框。
可用文件名和大小选择器来选择文件。
文件名选择器帮您根据文件名称或后缀来选择文件。不分大小写。
符号使用:
和:空格( )、+
不包含:-
或:|
转义:一对英文引号("");
匹配开头:^
匹配结尾:$
例如:
选中所有名称中包含有“eMule”或“0.49c”字眼,但不包含有“exe”字眼的:emule|0.49c -exe
选中所有名称的开头是“eMule”,结尾是“0.49c”的:^emule 0.49c$
选中所有名称中带有“eMule 0.49c”的(必须是“eMule 0.49c”,中间没有别的字符,不能是“eMule fake 0.49c”),需要转义:"emule 0.49c"
大小选择器帮您根据文件大小选择文件。