当前位置: 首页 >> 动画电影 >> 哆啦A梦:伴我同行2[国语配音/中文字幕].Stand.by.Me.2.2020.1080p.WEB-DL.H264.AAC 2.84GB >> 正文

哆啦A梦:伴我同行2[国语配音/中文字幕].Stand.by.Me.2.2020.1080p.WEB-DL.H264.AAC 2.84GB

2021年08月29日 14:21:39     电影发布:来源于网络     电影分类:动画电影     评论(0)    

哆啦A梦:伴我同行2[国语配音/中文字幕].Stand.by.Me.2.2020.1080p.WEB DL.H264.AAC 2.84GB 动画片 剧情片 动画电影  第1张

◎译 名 哆啦A梦:伴我同行2 / 与我同行的哆啦A梦2 / 机器猫:伴我同行2 / 小叮当:伴我同行2 / Stand by Me Doraemon 2 / Doraemon 3D: Stand by Me 2

◎片 名 STAND BY ME ドラえもん2

◎年 代 2020

◎产 地 日本

◎类 别 剧情 / 动画

◎语 言 日语

◎上映日期 2021-05-28(中国大陆) / 2020-11-20(日本)

◎IMDb链接 https://www.imdb.com/title/tt13428402/

◎豆瓣评分 7.2/10 (63261人评价)

◎豆瓣链接 https://movie.douban.com/subject/34913671/

◎片 长 96分钟

◎导 演 八木龙一 Ryuichi Yagi (id:1336198)

山崎贵 Takashi Yamazaki (id:1301398)

◎编 剧 山崎贵 Takashi Yamazaki (id:1301398)

藤子·F·不二雄 F. Fujio Fujiko (id:1085164)

◎演 员 水田山葵 Wasabi Mizuta (id:1024195)

大原惠美 Megumi Oohara (id:1326329)

嘉数由美 Yumi Kakazu (id:1020284)

木村昴 Subaru Kimura (id:1315247)

关智一 Tomokazu Seki (id:1050981)

妻夫木聪 Satoshi Tsumabuki (id:1037028)

宫本信子 Nobuko Miyamoto (id:1001156)

三石琴乃 Kotono Mitsuishi (id:1037583)

松本保典 Yasunori Matsumoto (id:1008309)

笨蛋节奏 Bakarhythm (id:1343869)

羽鸟慎一 Shinichi Hatori (id:1241686)

◎标 签 哆啦A梦 / 温情 / 日本 / 动画 / 日本动画 / 动漫 / 剧场版 / 电影

◎简 介

某天,大雄(大原惠美 配音)偶然发现了童年时奶奶为自己缝制的玩偶熊,于是央求哆啦A梦(水田山葵 配音)去往过去看望已不再人世的奶奶(宫本信子 配音),大雄与奶奶重逢之后,奶奶希望能看到大雄长大结婚时的样子,答应奶奶的大雄与哆啦A梦则再一次的返回了未来,婚礼如期举行的那天,所有人都到了场,但最重要的新郎成年大雄(妻夫木聪 配音)居然不在现场,情急之下,哆啦A梦让大雄假扮成年时的自己与静香结婚(嘉数由美 配音),然而真正的成年大雄究竟去了哪里呢?

◎获奖情况 (共1项)

第44届日本电影学院奖 (2021)

最佳动画片(提名)

  1. ##### MediaInfo ######

  2. General

  3. Complete name : 哆啦A梦:伴我同行2.Stand.by.Me.2.2020.1080p.WEB-DL.H264.AAC-10006@BBQDDQ.COM.mp4

  4. Format : MPEG-4

  5. Format profile : Base Media

  6. Codec ID : isom (isom/iso2/avc1/mp41)

  7. File size : 2.84 GiB

  8. Duration : 1 h 35 min

  9. Overall bit rate mode : Variable

  10. Overall bit rate : 4 239 kb/s

  11. Writing application : Lavf58.27.103


  12. Video

  13. ID : 1

  14. Format : AVC

  15. Format/Info : Advanced Video Codec

  16. Format profile : High@L4

  17. Format settings : CABAC / 4 Ref Frames

  18. Format settings, CABAC : Yes

  19. Format settings, Reference frames : 4 frames

  20. Codec ID : avc1

  21. Codec ID/Info : Advanced Video Coding

  22. Duration : 1 h 35 min

  23. Bit rate : 4 139 kb/s

  24. Width : 1 920 pixels

  25. Height : 1 038 pixels

  26. Display aspect ratio : 1.85:1

  27. Frame rate mode : Variable

  28. Frame rate : 25.000 FPS

  29. Minimum frame rate : 24.993 FPS

  30. Maximum frame rate : 25.007 FPS

  31. Color space : YUV

  32. Chroma subsampling : 4:2:0

  33. Bit depth : 8 bits

  34. Scan type : Progressive

  35. Bits/(Pixel*Frame) : 0.083

  36. Stream size : 2.77 GiB (98%)

  37. Writing library : ptw-1.0.134 rcm-adapt vs-93 vwk

  38. Color range : Limited

  39. Codec configuration box : avcC


  40. Audio

  41. ID : 2

  42. Format : AAC LC

  43. Format/Info : Advanced Audio Codec Low Complexity

  44. Codec ID : mp4a-40-2

  45. Duration : 1 h 35 min

  46. Bit rate mode : Variable

  47. Bit rate : 93.4 kb/s

  48. Maximum bit rate : 94.5 kb/s

  49. Channel(s) : 2 channels

  50. Channel layout : L R

  51. Sampling rate : 48.0 kHz

  52. Frame rate : 46.875 FPS (1024 SPF)

  53. Compression mode : Lossy

  54. Stream size : 64.0 MiB (2%)

  55. Default : Yes

  56. Alternate group : 1


文件下载


除非特别注明,本文『哆啦A梦:伴我同行2[国语配音/中文字幕].Stand.by.Me.2.2020.1080p.WEB-DL.H264.AAC 2.84GB』来源于互联网机器人自动抓取,非本站原创。 浮游电影网不对本文拥有版权,如有侵犯,请联系邮箱:fuyouu#yandex.com[#换成@]投诉。我们会在15个工作日内删除。 但烦请转载时请标明出处:“本文转载于『浮游电影网』,原文地址:https://www.fuyouu.com/14005.html

评论吧骚年!

发表你的见解   

昵称*

E-mail*(建议输入,以便收到博主回复的提示邮件)

验证码*

您可以使用eMule或eMule Mod(Windows)、aMule(Win、Linux、Mac)等软件下载eD2k链接。。
eMule收藏集(.emulecollection)文件是您选中的所有链接的列表文件。eMule可以直接下载它们。
按住SHIFT键选择可以选中多个选择框。
可用文件名和大小选择器来选择文件。
文件名选择器帮您根据文件名称或后缀来选择文件。不分大小写。
符号使用:
和:空格( )、+
不包含:-
或:|
转义:一对英文引号("");
匹配开头:^
匹配结尾:$
例如:
选中所有名称中包含有“eMule”或“0.49c”字眼,但不包含有“exe”字眼的:emule|0.49c -exe
选中所有名称的开头是“eMule”,结尾是“0.49c”的:^emule 0.49c$
选中所有名称中带有“eMule 0.49c”的(必须是“eMule 0.49c”,中间没有别的字符,不能是“eMule fake 0.49c”),需要转义:"emule 0.49c"
大小选择器帮您根据文件大小选择文件。