当前位置: 首页 >> 动画电影 >> 猎魔人:狼之噩梦[中文字幕].The.Witcher.Nightmare.of.the.Wolf.2021.1080p.NF.WEB-DL.DDP5.1.Atmos.x264 8.75GB >> 正文

猎魔人:狼之噩梦[中文字幕].The.Witcher.Nightmare.of.the.Wolf.2021.1080p.NF.WEB-DL.DDP5.1.Atmos.x264 8.75GB

2021年08月29日 13:27:13     电影发布:来源于网络     电影分类:动画电影     评论(0)    

猎魔人:狼之噩梦[中文字幕].The.Witcher.Nightmare.of.the.Wolf.2021.1080p.NF.WEB DL.DDP5.1.Atmos.x264 8.75GB 动画片 奇幻片 动作片 动画电影  第1张

◎译 名 猎魔人:狼之噩梦 / 巫师:狼之噩梦

◎片 名 The Witcher: Nightmare of the Wolf

◎年 代 2021

◎产 地 美国

◎类 别 动作 / 动画 / 奇幻

◎语 言 英语

◎上映日期 2021-08-23(美国)

◎IMDb链接 https://www.imdb.com/title/tt11657662/

◎豆瓣评分 8.1/10 (837人评价)

◎豆瓣链接 https://movie.douban.com/subject/34955909/

◎片 长 81分钟

◎编 剧 安杰·萨普科夫斯基 Andrzej Sapkowski (id:1380497)

◎演 员 西奥·詹姆斯 Theo James (id:1314251)

格拉汉姆·麦克泰维什 Graham McTavish (id:1323191)

玛丽·麦克唐纳 Mary McDonnell (id:1044889)

劳拉·普沃 Lara Pulver (id:1267074)

马修·杨·金 Matthew Yang King (id:1392062)

汤姆·坎顿 Tom Canton (id:1420355)

劳伦·施密特 Lauren Schmidt (id:1379682)

◎标 签 动画 / 猎魔人 / 奇幻 / Netflix / 美国 / 网飞 / 2021 / 改编

◎简 介

据外媒报道,Netflix还将制作一个关联动画电影《巫师:狼之噩梦(The Witcher: Nightmare of the Wolf)》。《巫师:狼之噩梦》是一个电影项目,编剧是Beau DeMayo。DeMayo是《巫师》电视剧第三集“Betrayer Moon”的编剧,同时也将是《巫师》第二季8集中其中一集的编剧。

  1. ##### MediaInfo ######

  2. General

  3. Unique ID : 158636188990180491819061927969748194590 (0x775837FA5C975D2C8D35E1C8F44C951E)

  4. Complete name : The.Witcher.Nig[email protected]BBQDDQ.COM.mkv

  5. Format : Matroska

  6. Format version : Version 4

  7. File size : 8.75 GiB

  8. Duration : 1 h 23 min

  9. Overall bit rate mode : Variable

  10. Overall bit rate : 15.0 Mb/s

  11. Encoded date : UTC 2021-08-27 06:19:16

  12. Writing application : mkvmerge v44.0.0 ('Domino') 64-bit

  13. Writing library : libebml v1.3.10 + libmatroska v1.5.2


  14. Video

  15. ID : 1

  16. Format : AVC

  17. Format/Info : Advanced Video Codec

  18. Format profile : [email protected]

  19. Format settings : CABAC / 4 Ref Frames

  20. Format settings, CABAC : Yes

  21. Format settings, Reference frames : 4 frames

  22. Codec ID : V_MPEG4/ISO/AVC

  23. Duration : 1 h 23 min

  24. Bit rate mode : Variable

  25. Bit rate : 4 604 kb/s

  26. Maximum bit rate : 20.0 Mb/s

  27. Width : 1 920 pixels

  28. Height : 1 080 pixels

  29. Display aspect ratio : 16:9

  30. Frame rate mode : Constant

  31. Frame rate : 24.000 FPS

  32. Color space : YUV

  33. Chroma subsampling : 4:2:0

  34. Bit depth : 8 bits

  35. Scan type : Progressive

  36. Bits/(Pixel*Frame) : 0.093

  37. Stream size : 2.69 GiB (31%)

  38. Writing library : x264 core 148 r2722 1b0121b

  39. Encoding settings : cabac=1 / ref=4 / deblock=1:0:0 / analyse=0x3:0x111 / me=umh / subme=10 / psy=1 / psy_rd=1.00:0.00 / mixed_ref=1 / me_range=120 / chroma_me=1 / trellis=2 / 8x8dct=1 / cqm=0 / deadzone=21,11 / fast_pskip=1 / chroma_qp_offset=-2 / threads=8 / lookahead_threads=2 / sliced_threads=0 / nr=0 / decimate=1 / interlaced=0 / NTMzNTQ= / bluray_compat=0 / stitchable=1 / constrained_intra=0 / bframes=16 / b_pyramid=2 / b_adapt=2 / b_bias=0 / direct=3 / weightb=1 / open_gop=0 / weightp=2 / keyint=240 / keyint_min=121 / scenecut=0 / intra_refresh=0 / rc_lookahead=240 / rc=crf / mbtree=1 / crf=16.0 / qcomp=0.50 / qpmin=6 / qpmax=51 / qpstep=4 / vbv_maxrate=20000 / vbv_bufsize=25000 / crf_max=0.0 / nal_hrd=vbr / filler=0 / NTMzNTQ=LmsMAP37EqsCpk / ip_ratio=1.40 / aq=1:0.80

  40. Default : Yes

  41. Forced : No


  42. Audio #1

  43. ID : 2

  44. Format : E-AC-3 JOC

  45. Format/Info : Enhanced AC-3 with Joint Object Coding

  46. Commercial name : Dolby Digital Plus with Dolby Atmos

  47. Codec ID : A_EAC3

  48. Duration : 1 h 23 min

  49. Bit rate mode : Constant

  50. Bit rate : 768 kb/s

  51. Channel(s) : 6 channels

  52. Channel layout : L R C LFE Ls Rs

  53. Sampling rate : 48.0 kHz

  54. Frame rate : 31.250 FPS (1536 SPF)

  55. Compression mode : Lossy

  56. Stream size : 459 MiB (5%)

  57. Title : English

  58. Language : English

  59. Service kind : Complete Main

  60. Default : Yes

  61. Forced : No

  62. Complexity index : 16

  63. Number of dynamic objects : 15

  64. Bed channel count : 1 channel

  65. Bed channel configuration : LFE


  66. Audio #2

  67. ID : 3

  68. Format : E-AC-3

  69. Format/Info : Enhanced AC-3

  70. Commercial name : Dolby Digital Plus

  71. Codec ID : A_EAC3

  72. Duration : 1 h 23 min

  73. Bit rate mode : Constant

  74. Bit rate : 640 kb/s

  75. Channel(s) : 6 channels

  76. Channel layout : L R C LFE Ls Rs

  77. Sampling rate : 48.0 kHz

  78. Frame rate : 31.250 FPS (1536 SPF)

  79. Compression mode : Lossy

  80. Stream size : 383 MiB (4%)

  81. Title : Czech

  82. Language : Czech

  83. Service kind : Complete Main

  84. Default : No

  85. Forced : No


  86. Audio #3

  87. ID : 4

  88. Format : E-AC-3

  89. Format/Info : Enhanced AC-3

  90. Commercial name : Dolby Digital Plus

  91. Codec ID : A_EAC3

  92. Duration : 1 h 23 min

  93. Bit rate mode : Constant

  94. Bit rate : 640 kb/s

  95. Channel(s) : 6 channels

  96. Channel layout : L R C LFE Ls Rs

  97. Sampling rate : 48.0 kHz

  98. Frame rate : 31.250 FPS (1536 SPF)

  99. Compression mode : Lossy

  100. Stream size : 383 MiB (4%)

  101. Title : French

  102. Language : French

  103. Service kind : Complete Main

  104. Default : No

  105. Forced : No


  106. Audio #4

  107. ID : 5

  108. Format : E-AC-3

  109. Format/Info : Enhanced AC-3

  110. Commercial name : Dolby Digital Plus

  111. Codec ID : A_EAC3

  112. Duration : 1 h 23 min

  113. Bit rate mode : Constant

  114. Bit rate : 640 kb/s

  115. Channel(s) : 6 channels

  116. Channel layout : L R C LFE Ls Rs

  117. Sampling rate : 48.0 kHz

  118. Frame rate : 31.250 FPS (1536 SPF)

  119. Compression mode : Lossy

  120. Stream size : 383 MiB (4%)

  121. Title : German

  122. Language : German

  123. Service kind : Complete Main

  124. Default : No

  125. Forced : No


  126. Audio #5

  127. ID : 6

  128. Format : E-AC-3

  129. Format/Info : Enhanced AC-3

  130. Commercial name : Dolby Digital Plus

  131. Codec ID : A_EAC3

  132. Duration : 1 h 23 min

  133. Bit rate mode : Constant

  134. Bit rate : 640 kb/s

  135. Channel(s) : 6 channels

  136. Channel layout : L R C LFE Ls Rs

  137. Sampling rate : 48.0 kHz

  138. Frame rate : 31.250 FPS (1536 SPF)

  139. Compression mode : Lossy

  140. Stream size : 383 MiB (4%)

  141. Title : Hindi

  142. Language : Hindi

  143. Service kind : Complete Main

  144. Default : No

  145. Forced : No


  146. Audio #6

  147. ID : 7

  148. Format : E-AC-3

  149. Format/Info : Enhanced AC-3

  150. Commercial name : Dolby Digital Plus

  151. Codec ID : A_EAC3

  152. Duration : 1 h 23 min

  153. Bit rate mode : Constant

  154. Bit rate : 640 kb/s

  155. Channel(s) : 6 channels

  156. Channel layout : L R C LFE Ls Rs

  157. Sampling rate : 48.0 kHz

  158. Frame rate : 31.250 FPS (1536 SPF)

  159. Compression mode : Lossy

  160. Stream size : 383 MiB (4%)

  161. Title : Hungarian

  162. Language : Hungarian

  163. Service kind : Complete Main

  164. Default : No

  165. Forced : No


  166. Audio #7

  167. ID : 8

  168. Format : E-AC-3

  169. Format/Info : Enhanced AC-3

  170. Commercial name : Dolby Digital Plus

  171. Codec ID : A_EAC3

  172. Duration : 1 h 23 min

  173. Bit rate mode : Constant

  174. Bit rate : 640 kb/s

  175. Channel(s) : 6 channels

  176. Channel layout : L R C LFE Ls Rs

  177. Sampling rate : 48.0 kHz

  178. Frame rate : 31.250 FPS (1536 SPF)

  179. Compression mode : Lossy

  180. Stream size : 383 MiB (4%)

  181. Title : Italian

  182. Language : Italian

  183. Service kind : Complete Main

  184. Default : No

  185. Forced : No


  186. Audio #8

  187. ID : 9

  188. Format : E-AC-3

  189. Format/Info : Enhanced AC-3

  190. Commercial name : Dolby Digital Plus

  191. Codec ID : A_EAC3

  192. Duration : 1 h 23 min

  193. Bit rate mode : Constant

  194. Bit rate : 640 kb/s

  195. Channel(s) : 6 channels

  196. Channel layout : L R C LFE Ls Rs

  197. Sampling rate : 48.0 kHz

  198. Frame rate : 31.250 FPS (1536 SPF)

  199. Compression mode : Lossy

  200. Stream size : 383 MiB (4%)

  201. Title : Japanese

  202. Language : Japanese

  203. Service kind : Complete Main

  204. Default : No

  205. Forced : No


  206. Audio #9

  207. ID : 10

  208. Format : E-AC-3

  209. Format/Info : Enhanced AC-3

  210. Commercial name : Dolby Digital Plus

  211. Codec ID : A_EAC3

  212. Duration : 1 h 23 min

  213. Bit rate mode : Constant

  214. Bit rate : 640 kb/s

  215. Channel(s) : 6 channels

  216. Channel layout : L R C LFE Ls Rs

  217. Sampling rate : 48.0 kHz

  218. Frame rate : 31.250 FPS (1536 SPF)

  219. Compression mode : Lossy

  220. Stream size : 383 MiB (4%)

  221. Title : Brazilian Portuguese

  222. Language : Portuguese

  223. Service kind : Complete Main

  224. Default : No

  225. Forced : No


  226. Audio #10

  227. ID : 11

  228. Format : E-AC-3

  229. Format/Info : Enhanced AC-3

  230. Commercial name : Dolby Digital Plus

  231. Codec ID : A_EAC3

  232. Duration : 1 h 23 min

  233. Bit rate mode : Constant

  234. Bit rate : 640 kb/s

  235. Channel(s) : 6 channels

  236. Channel layout : L R C LFE Ls Rs

  237. Sampling rate : 48.0 kHz

  238. Frame rate : 31.250 FPS (1536 SPF)

  239. Compression mode : Lossy

  240. Stream size : 383 MiB (4%)

  241. Title : Russian

  242. Language : Russian

  243. Service kind : Complete Main

  244. Default : No

  245. Forced : No


  246. Audio #11

  247. ID : 12

  248. Format : E-AC-3

  249. Format/Info : Enhanced AC-3

  250. Commercial name : Dolby Digital Plus

  251. Codec ID : A_EAC3

  252. Duration : 1 h 23 min

  253. Bit rate mode : Constant

  254. Bit rate : 640 kb/s

  255. Channel(s) : 6 channels

  256. Channel layout : L R C LFE Ls Rs

  257. Sampling rate : 48.0 kHz

  258. Frame rate : 31.250 FPS (1536 SPF)

  259. Compression mode : Lossy

  260. Stream size : 383 MiB (4%)

  261. Title : Spanish

  262. Language : Spanish

  263. Service kind : Complete Main

  264. Default : No

  265. Forced : No


  266. Audio #12

  267. ID : 13

  268. Format : E-AC-3

  269. Format/Info : Enhanced AC-3

  270. Commercial name : Dolby Digital Plus

  271. Codec ID : A_EAC3

  272. Duration : 1 h 23 min

  273. Bit rate mode : Constant

  274. Bit rate : 640 kb/s

  275. Channel(s) : 6 channels

  276. Channel layout : L R C LFE Ls Rs

  277. Sampling rate : 48.0 kHz

  278. Frame rate : 31.250 FPS (1536 SPF)

  279. Compression mode : Lossy

  280. Stream size : 383 MiB (4%)

  281. Title : European Spanish

  282. Language : Spanish

  283. Service kind : Complete Main

  284. Default : No

  285. Forced : No


  286. Audio #13

  287. ID : 14

  288. Format : E-AC-3

  289. Format/Info : Enhanced AC-3

  290. Commercial name : Dolby Digital Plus

  291. Codec ID : A_EAC3

  292. Duration : 1 h 23 min

  293. Bit rate mode : Constant

  294. Bit rate : 640 kb/s

  295. Channel(s) : 6 channels

  296. Channel layout : L R C LFE Ls Rs

  297. Sampling rate : 48.0 kHz

  298. Frame rate : 31.250 FPS (1536 SPF)

  299. Compression mode : Lossy

  300. Stream size : 383 MiB (4%)

  301. Title : Thai

  302. Language : Thai

  303. Service kind : Complete Main

  304. Default : No

  305. Forced : No


  306. Audio #14

  307. ID : 15

  308. Format : E-AC-3

  309. Format/Info : Enhanced AC-3

  310. Commercial name : Dolby Digital Plus

  311. Codec ID : A_EAC3

  312. Duration : 1 h 23 min

  313. Bit rate mode : Constant

  314. Bit rate : 640 kb/s

  315. Channel(s) : 6 channels

  316. Channel layout : L R C LFE Ls Rs

  317. Sampling rate : 48.0 kHz

  318. Frame rate : 31.250 FPS (1536 SPF)

  319. Compression mode : Lossy

  320. Stream size : 383 MiB (4%)

  321. Title : Turkish

  322. Language : Turkish

  323. Service kind : Complete Main

  324. Default : No

  325. Forced : No


  326. Audio #15

  327. ID : 16

  328. Format : E-AC-3

  329. Format/Info : Enhanced AC-3

  330. Commercial name : Dolby Digital Plus

  331. Codec ID : A_EAC3

  332. Duration : 1 h 23 min

  333. Bit rate mode : Constant

  334. Bit rate : 640 kb/s

  335. Channel(s) : 6 channels

  336. Channel layout : L R C LFE Ls Rs

  337. Sampling rate : 48.0 kHz

  338. Frame rate : 31.250 FPS (1536 SPF)

  339. Compression mode : Lossy

  340. Stream size : 383 MiB (4%)

  341. Title : Polish - Dubbing

  342. Language : Polish

  343. Service kind : Complete Main

  344. Default : No

  345. Forced : No


  346. Audio #16

  347. ID : 17

  348. Format : E-AC-3

  349. Format/Info : Enhanced AC-3

  350. Commercial name : Dolby Digital Plus

  351. Codec ID : A_EAC3

  352. Duration : 1 h 23 min

  353. Bit rate mode : Constant

  354. Bit rate : 640 kb/s

  355. Channel(s) : 6 channels

  356. Channel layout : L R C LFE Ls Rs

  357. Sampling rate : 48.0 kHz

  358. Frame rate : 31.250 FPS (1536 SPF)

  359. Compression mode : Lossy

  360. Stream size : 383 MiB (4%)

  361. Title : Polish - Lektor

  362. Language : Polish

  363. Service kind : Complete Main

  364. Default : No

  365. Forced : No


  366. Text #1

  367. ID : 18

  368. Format : UTF-8

  369. Codec ID : S_TEXT/UTF8

  370. Codec ID/Info : UTF-8 Plain Text

  371. Duration : 1 h 21 min

  372. Bit rate : 80 b/s

  373. Count of elements : 1194

  374. Stream size : 48.2 KiB (0%)

  375. Title : English

  376. Language : English

  377. Default : Yes

  378. Forced : No


  379. Text #2

  380. ID : 19

  381. Format : UTF-8

  382. Codec ID : S_TEXT/UTF8

  383. Codec ID/Info : UTF-8 Plain Text

  384. Duration : 1 h 21 min

  385. Bit rate : 92 b/s

  386. Count of elements : 1044

  387. Stream size : 55.1 KiB (0%)

  388. Title : Arabic

  389. Language : Arabic

  390. Default : No

  391. Forced : No


  392. Text #3

  393. ID : 20

  394. Format : UTF-8

  395. Codec ID : S_TEXT/UTF8

  396. Codec ID/Info : UTF-8 Plain Text

  397. Duration : 1 h 21 min

  398. Bit rate : 56 b/s

  399. Count of elements : 1044

  400. Stream size : 33.7 KiB (0%)

  401. Title : Chinese Simplified

  402. Language : Chinese

  403. Default : No

  404. Forced : No


  405. Text #4

  406. ID : 21

  407. Format : UTF-8

  408. Codec ID : S_TEXT/UTF8

  409. Codec ID/Info : UTF-8 Plain Text

  410. Duration : 1 h 21 min

  411. Bit rate : 55 b/s

  412. Count of elements : 1063

  413. Stream size : 32.9 KiB (0%)

  414. Title : Chinese Traditional

  415. Language : Chinese

  416. Default : No

  417. Forced : No


  418. Text #5

  419. ID : 22

  420. Format : UTF-8

  421. Codec ID : S_TEXT/UTF8

  422. Codec ID/Info : UTF-8 Plain Text

  423. Duration : 1 h 21 min

  424. Bit rate : 49 b/s

  425. Count of elements : 1030

  426. Stream size : 29.5 KiB (0%)

  427. Title : Croatian

  428. Language : Croatian

  429. Default : No

  430. Forced : No


  431. Text #6

  432. ID : 23

  433. Format : UTF-8

  434. Codec ID : S_TEXT/UTF8

  435. Codec ID/Info : UTF-8 Plain Text

  436. Duration : 1 h 21 min

  437. Bit rate : 54 b/s

  438. Count of elements : 1014

  439. Stream size : 32.3 KiB (0%)

  440. Title : Czech

  441. Language : Czech

  442. Default : No

  443. Forced : No


  444. Text #7

  445. ID : 24

  446. Format : UTF-8

  447. Codec ID : S_TEXT/UTF8

  448. Codec ID/Info : UTF-8 Plain Text

  449. Duration : 1 h 21 min

  450. Bit rate : 51 b/s

  451. Count of elements : 938

  452. Stream size : 31.0 KiB (0%)

  453. Title : Danish

  454. Language : Danish

  455. Default : No

  456. Forced : No


  457. Text #8

  458. ID : 25

  459. Format : UTF-8

  460. Codec ID : S_TEXT/UTF8

  461. Codec ID/Info : UTF-8 Plain Text

  462. Duration : 1 h 21 min

  463. Bit rate : 48 b/s

  464. Count of elements : 865

  465. Stream size : 28.9 KiB (0%)

  466. Title : Dutch

  467. Language : Dutch

  468. Default : No

  469. Forced : No


  470. Text #9

  471. ID : 26

  472. Format : UTF-8

  473. Codec ID : S_TEXT/UTF8

  474. Codec ID/Info : UTF-8 Plain Text

  475. Duration : 1 h 21 min

  476. Bit rate : 52 b/s

  477. Count of elements : 856

  478. Stream size : 31.6 KiB (0%)

  479. Title : Finnish

  480. Language : Finnish

  481. Default : No

  482. Forced : No


  483. Text #10

  484. ID : 27

  485. Format : UTF-8

  486. Codec ID : S_TEXT/UTF8

  487. Codec ID/Info : UTF-8 Plain Text

  488. Duration : 1 h 21 min

  489. Bit rate : 54 b/s

  490. Count of elements : 941

  491. Stream size : 32.5 KiB (0%)

  492. Title : French

  493. Language : French

  494. Default : No

  495. Forced : No


  496. Text #11

  497. ID : 28

  498. Format : UTF-8

  499. Codec ID : S_TEXT/UTF8

  500. Codec ID/Info : UTF-8 Plain Text

  501. Duration : 1 h 21 min

  502. Bit rate : 55 b/s

  503. Count of elements : 954

  504. Stream size : 33.2 KiB (0%)

  505. Title : German

  506. Language : German

  507. Default : No

  508. Forced : No


  509. Text #12

  510. ID : 29

  511. Format : UTF-8

  512. Codec ID : S_TEXT/UTF8

  513. Codec ID/Info : UTF-8 Plain Text

  514. Duration : 1 h 21 min

  515. Bit rate : 100 b/s

  516. Count of elements : 1047

  517. Stream size : 59.8 KiB (0%)

  518. Title : Greek

  519. Language : Greek

  520. Default : No

  521. Forced : No


  522. Text #13

  523. ID : 30

  524. Format : UTF-8

  525. Codec ID : S_TEXT/UTF8

  526. Codec ID/Info : UTF-8 Plain Text

  527. Duration : 1 h 21 min

  528. Bit rate : 84 b/s

  529. Count of elements : 1045

  530. Stream size : 50.3 KiB (0%)

  531. Title : Hebrew

  532. Language : Hebrew

  533. Default : No

  534. Forced : No


  535. Text #14

  536. ID : 31

  537. Format : UTF-8

  538. Codec ID : S_TEXT/UTF8

  539. Codec ID/Info : UTF-8 Plain Text

  540. Duration : 1 h 21 min

  541. Bit rate : 53 b/s

  542. Count of elements : 1031

  543. Stream size : 31.9 KiB (0%)

  544. Title : Hungarian

  545. Language : Hungarian

  546. Default : No

  547. Forced : No


  548. Text #15

  549. ID : 32

  550. Format : UTF-8

  551. Codec ID : S_TEXT/UTF8

  552. Codec ID/Info : UTF-8 Plain Text

  553. Duration : 1 h 21 min

  554. Bit rate : 50 b/s

  555. Count of elements : 1042

  556. Stream size : 30.2 KiB (0%)

  557. Title : Indonesian

  558. Language : Indonesian

  559. Default : No

  560. Forced : No


  561. Text #16

  562. ID : 33

  563. Format : UTF-8

  564. Codec ID : S_TEXT/UTF8

  565. Codec ID/Info : UTF-8 Plain Text

  566. Duration : 1 h 21 min

  567. Bit rate : 55 b/s

  568. Count of elements : 930

  569. Stream size : 33.3 KiB (0%)

  570. Title : Italian

  571. Language : Italian

  572. Default : No

  573. Forced : No


  574. Text #17

  575. ID : 34

  576. Format : UTF-8

  577. Codec ID : S_TEXT/UTF8

  578. Codec ID/Info : UTF-8 Plain Text

  579. Duration : 1 h 21 min

  580. Bit rate : 56 b/s

  581. Count of elements : 941

  582. Stream size : 33.8 KiB (0%)

  583. Title : Japanese

  584. Language : Japanese

  585. Default : No

  586. Forced : No


  587. Text #18

  588. ID : 35

  589. Format : UTF-8

  590. Codec ID : S_TEXT/UTF8

  591. Codec ID/Info : UTF-8 Plain Text

  592. Duration : 1 h 21 min

  593. Bit rate : 67 b/s

  594. Count of elements : 1057

  595. Stream size : 40.5 KiB (0%)

  596. Title : Korean

  597. Language : Korean

  598. Default : No

  599. Forced : No


  600. Text #19

  601. ID : 36

  602. Format : UTF-8

  603. Codec ID : S_TEXT/UTF8

  604. Codec ID/Info : UTF-8 Plain Text

  605. Duration : 1 h 21 min

  606. Bit rate : 52 b/s

  607. Count of elements : 992

  608. Stream size : 31.5 KiB (0%)

  609. Title : Malay

  610. Language : Malay

  611. Default : No

  612. Forced : No


  613. Text #20

  614. ID : 37

  615. Format : UTF-8

  616. Codec ID : S_TEXT/UTF8

  617. Codec ID/Info : UTF-8 Plain Text

  618. Duration : 1 h 21 min

  619. Bit rate : 51 b/s

  620. Count of elements : 900

  621. Stream size : 30.8 KiB (0%)

  622. Title : Norwegian Bokmal

  623. Language : Norwegian Bokmal

  624. Default : No

  625. Forced : No


  626. Text #21

  627. ID : 38

  628. Format : UTF-8

  629. Codec ID : S_TEXT/UTF8

  630. Codec ID/Info : UTF-8 Plain Text

  631. Duration : 1 h 21 min

  632. Bit rate : 53 b/s

  633. Count of elements : 1023

  634. Stream size : 31.7 KiB (0%)

  635. Title : Polish

  636. Language : Polish

  637. Default : No

  638. Forced : No


  639. Text #22

  640. ID : 39

  641. Format : UTF-8

  642. Codec ID : S_TEXT/UTF8

  643. Codec ID/Info : UTF-8 Plain Text

  644. Duration : 1 h 21 min

  645. Bit rate : 53 b/s

  646. Count of elements : 1030

  647. Stream size : 31.8 KiB (0%)

  648. Title : Portuguese

  649. Language : Portuguese

  650. Default : No

  651. Forced : No


  652. Text #23

  653. ID : 40

  654. Format : UTF-8

  655. Codec ID : S_TEXT/UTF8

  656. Codec ID/Info : UTF-8 Plain Text

  657. Duration : 1 h 21 min

  658. Bit rate : 51 b/s

  659. Count of elements : 1018

  660. Stream size : 31.0 KiB (0%)

  661. Title : Brazilian Portuguese

  662. Language : Portuguese

  663. Default : No

  664. Forced : No


  665. Text #24

  666. ID : 41

  667. Format : UTF-8

  668. Codec ID : S_TEXT/UTF8

  669. Codec ID/Info : UTF-8 Plain Text

  670. Duration : 1 h 21 min

  671. Bit rate : 60 b/s

  672. Count of elements : 964

  673. Stream size : 36.0 KiB (0%)

  674. Title : Romanian

  675. Language : Romanian

  676. Default : No

  677. Forced : No


  678. Text #25

  679. ID : 42

  680. Format : UTF-8

  681. Codec ID : S_TEXT/UTF8

  682. Codec ID/Info : UTF-8 Plain Text

  683. Duration : 1 h 21 min

  684. Bit rate : 88 b/s

  685. Count of elements : 1020

  686. Stream size : 52.9 KiB (0%)

  687. Title : Russian

  688. Language : Russian

  689. Default : No

  690. Forced : No


  691. Text #26

  692. ID : 43

  693. Format : UTF-8

  694. Codec ID : S_TEXT/UTF8

  695. Codec ID/Info : UTF-8 Plain Text

  696. Duration : 1 h 21 min

  697. Bit rate : 53 b/s

  698. Count of elements : 963

  699. Stream size : 32.2 KiB (0%)

  700. Title : Spanish

  701. Language : Spanish

  702. Default : No

  703. Forced : No


  704. Text #27

  705. ID : 44

  706. Format : UTF-8

  707. Codec ID : S_TEXT/UTF8

  708. Codec ID/Info : UTF-8 Plain Text

  709. Duration : 1 h 21 min

  710. Bit rate : 50 b/s

  711. Count of elements : 1028

  712. Stream size : 29.9 KiB (0%)

  713. Title : European Spanish

  714. Language : Spanish

  715. Default : No

  716. Forced : No


  717. Text #28

  718. ID : 45

  719. Format : UTF-8

  720. Codec ID : S_TEXT/UTF8

  721. Codec ID/Info : UTF-8 Plain Text

  722. Duration : 1 h 21 min

  723. Bit rate : 54 b/s

  724. Count of elements : 841

  725. Stream size : 32.7 KiB (0%)

  726. Title : Swedish

  727. Language : Swedish

  728. Default : No

  729. Forced : No


  730. Text #29

  731. ID : 46

  732. Format : UTF-8

  733. Codec ID : S_TEXT/UTF8

  734. Codec ID/Info : UTF-8 Plain Text

  735. Duration : 1 h 21 min

  736. Bit rate : 146 b/s

  737. Count of elements : 1043

  738. Stream size : 87.3 KiB (0%)

  739. Title : Thai

  740. Language : Thai

  741. Default : No

  742. Forced : No


  743. Text #30

  744. ID : 47

  745. Format : UTF-8

  746. Codec ID : S_TEXT/UTF8

  747. Codec ID/Info : UTF-8 Plain Text

  748. Duration : 1 h 21 min

  749. Bit rate : 57 b/s

  750. Count of elements : 978

  751. Stream size : 34.1 KiB (0%)

  752. Title : Turkish

  753. Language : Turkish

  754. Default : No

  755. Forced : No


  756. Text #31

  757. ID : 48

  758. Format : UTF-8

  759. Codec ID : S_TEXT/UTF8

  760. Codec ID/Info : UTF-8 Plain Text

  761. Duration : 1 h 21 min

  762. Bit rate : 81 b/s

  763. Count of elements : 1045

  764. Stream size : 48.9 KiB (0%)

  765. Title : Ukrainian

  766. Language : Ukrainian

  767. Default : No

  768. Forced : No


  769. Text #32

  770. ID : 49

  771. Format : UTF-8

  772. Codec ID : S_TEXT/UTF8

  773. Codec ID/Info : UTF-8 Plain Text

  774. Duration : 1 h 21 min

  775. Bit rate : 81 b/s

  776. Count of elements : 1039

  777. Stream size : 48.7 KiB (0%)

  778. Title : Vietnamese

  779. Language : Vietnamese

  780. Default : No

  781. Forced : No

◎译 名 猎魔人:狼之噩梦 / 巫师:狼之噩梦

◎片 名 The Witcher: Nightmare of the Wolf

◎年 代 2021

◎产 地 美国

◎类 别 动作 / 动画 / 奇幻

◎语 言 英语

◎上映日期 2021-08-23(美国)

◎IMDb链接 https://www.imdb.com/title/tt11657662/

◎豆瓣评分 8.1/10 (837人评价)

◎豆瓣链接 https://movie.douban.com/subject/34955909/

◎片 长 81分钟

◎编 剧 安杰·萨普科夫斯基 Andrzej Sapkowski (id:1380497)

◎演 员 西奥·詹姆斯 Theo James (id:1314251)

格拉汉姆·麦克泰维什 Graham McTavish (id:1323191)

玛丽·麦克唐纳 Mary McDonnell (id:1044889)

劳拉·普沃 Lara Pulver (id:1267074)

马修·杨·金 Matthew Yang King (id:1392062)

汤姆·坎顿 Tom Canton (id:1420355)

劳伦·施密特 Lauren Schmidt (id:1379682)

◎标 签 动画 / 猎魔人 / 奇幻 / Netflix / 美国 / 网飞 / 2021 / 改编

◎简 介

据外媒报道,Netflix还将制作一个关联动画电影《巫师:狼之噩梦(The Witcher: Nightmare of the Wolf)》。《巫师:狼之噩梦》是一个电影项目,编剧是Beau DeMayo。DeMayo是《巫师》电视剧第三集“Betrayer Moon”的编剧,同时也将是《巫师》第二季8集中其中一集的编剧。

  1. ##### MediaInfo ######

  2. General

  3. Unique ID : 158636188990180491819061927969748194590 (0x775837FA5C975D2C8D35E1C8F44C951E)

  4. Complete name : The.Witcher.Nig[email protected]BBQDDQ.COM.mkv

  5. Format : Matroska

  6. Format version : Version 4

  7. File size : 8.75 GiB

  8. Duration : 1 h 23 min

  9. Overall bit rate mode : Variable

  10. Overall bit rate : 15.0 Mb/s

  11. Encoded date : UTC 2021-08-27 06:19:16

  12. Writing application : mkvmerge v44.0.0 ('Domino') 64-bit

  13. Writing library : libebml v1.3.10 + libmatroska v1.5.2


  14. Video

  15. ID : 1

  16. Format : AVC

  17. Format/Info : Advanced Video Codec

  18. Format profile : [email protected]

  19. Format settings : CABAC / 4 Ref Frames

  20. Format settings, CABAC : Yes

  21. Format settings, Reference frames : 4 frames

  22. Codec ID : V_MPEG4/ISO/AVC

  23. Duration : 1 h 23 min

  24. Bit rate mode : Variable

  25. Bit rate : 4 604 kb/s

  26. Maximum bit rate : 20.0 Mb/s

  27. Width : 1 920 pixels

  28. Height : 1 080 pixels

  29. Display aspect ratio : 16:9

  30. Frame rate mode : Constant

  31. Frame rate : 24.000 FPS

  32. Color space : YUV

  33. Chroma subsampling : 4:2:0

  34. Bit depth : 8 bits

  35. Scan type : Progressive

  36. Bits/(Pixel*Frame) : 0.093

  37. Stream size : 2.69 GiB (31%)

  38. Writing library : x264 core 148 r2722 1b0121b

  39. Encoding settings : cabac=1 / ref=4 / deblock=1:0:0 / analyse=0x3:0x111 / me=umh / subme=10 / psy=1 / psy_rd=1.00:0.00 / mixed_ref=1 / me_range=120 / chroma_me=1 / trellis=2 / 8x8dct=1 / cqm=0 / deadzone=21,11 / fast_pskip=1 / chroma_qp_offset=-2 / threads=8 / lookahead_threads=2 / sliced_threads=0 / nr=0 / decimate=1 / interlaced=0 / NTMzNTQ= / bluray_compat=0 / stitchable=1 / constrained_intra=0 / bframes=16 / b_pyramid=2 / b_adapt=2 / b_bias=0 / direct=3 / weightb=1 / open_gop=0 / weightp=2 / keyint=240 / keyint_min=121 / scenecut=0 / intra_refresh=0 / rc_lookahead=240 / rc=crf / mbtree=1 / crf=16.0 / qcomp=0.50 / qpmin=6 / qpmax=51 / qpstep=4 / vbv_maxrate=20000 / vbv_bufsize=25000 / crf_max=0.0 / nal_hrd=vbr / filler=0 / NTMzNTQ=LmsMAP37EqsCpk / ip_ratio=1.40 / aq=1:0.80

  40. Default : Yes

  41. Forced : No


  42. Audio #1

  43. ID : 2

  44. Format : E-AC-3 JOC

  45. Format/Info : Enhanced AC-3 with Joint Object Coding

  46. Commercial name : Dolby Digital Plus with Dolby Atmos

  47. Codec ID : A_EAC3

  48. Duration : 1 h 23 min

  49. Bit rate mode : Constant

  50. Bit rate : 768 kb/s

  51. Channel(s) : 6 channels

  52. Channel layout : L R C LFE Ls Rs

  53. Sampling rate : 48.0 kHz

  54. Frame rate : 31.250 FPS (1536 SPF)

  55. Compression mode : Lossy

  56. Stream size : 459 MiB (5%)

  57. Title : English

  58. Language : English

  59. Service kind : Complete Main

  60. Default : Yes

  61. Forced : No

  62. Complexity index : 16

  63. Number of dynamic objects : 15

  64. Bed channel count : 1 channel

  65. Bed channel configuration : LFE


  66. Audio #2

  67. ID : 3

  68. Format : E-AC-3

  69. Format/Info : Enhanced AC-3

  70. Commercial name : Dolby Digital Plus

  71. Codec ID : A_EAC3

  72. Duration : 1 h 23 min

  73. Bit rate mode : Constant

  74. Bit rate : 640 kb/s

  75. Channel(s) : 6 channels

  76. Channel layout : L R C LFE Ls Rs

  77. Sampling rate : 48.0 kHz

  78. Frame rate : 31.250 FPS (1536 SPF)

  79. Compression mode : Lossy

  80. Stream size : 383 MiB (4%)

  81. Title : Czech

  82. Language : Czech

  83. Service kind : Complete Main

  84. Default : No

  85. Forced : No


  86. Audio #3

  87. ID : 4

  88. Format : E-AC-3

  89. Format/Info : Enhanced AC-3

  90. Commercial name : Dolby Digital Plus

  91. Codec ID : A_EAC3

  92. Duration : 1 h 23 min

  93. Bit rate mode : Constant

  94. Bit rate : 640 kb/s

  95. Channel(s) : 6 channels

  96. Channel layout : L R C LFE Ls Rs

  97. Sampling rate : 48.0 kHz

  98. Frame rate : 31.250 FPS (1536 SPF)

  99. Compression mode : Lossy

  100. Stream size : 383 MiB (4%)

  101. Title : French

  102. Language : French

  103. Service kind : Complete Main

  104. Default : No

  105. Forced : No


  106. Audio #4

  107. ID : 5

  108. Format : E-AC-3

  109. Format/Info : Enhanced AC-3

  110. Commercial name : Dolby Digital Plus

  111. Codec ID : A_EAC3

  112. Duration : 1 h 23 min

  113. Bit rate mode : Constant

  114. Bit rate : 640 kb/s

  115. Channel(s) : 6 channels

  116. Channel layout : L R C LFE Ls Rs

  117. Sampling rate : 48.0 kHz

  118. Frame rate : 31.250 FPS (1536 SPF)

  119. Compression mode : Lossy

  120. Stream size : 383 MiB (4%)

  121. Title : German

  122. Language : German

  123. Service kind : Complete Main

  124. Default : No

  125. Forced : No


  126. Audio #5

  127. ID : 6

  128. Format : E-AC-3

  129. Format/Info : Enhanced AC-3

  130. Commercial name : Dolby Digital Plus

  131. Codec ID : A_EAC3

  132. Duration : 1 h 23 min

  133. Bit rate mode : Constant

  134. Bit rate : 640 kb/s

  135. Channel(s) : 6 channels

  136. Channel layout : L R C LFE Ls Rs

  137. Sampling rate : 48.0 kHz

  138. Frame rate : 31.250 FPS (1536 SPF)

  139. Compression mode : Lossy

  140. Stream size : 383 MiB (4%)

  141. Title : Hindi

  142. Language : Hindi

  143. Service kind : Complete Main

  144. Default : No

  145. Forced : No


  146. Audio #6

  147. ID : 7

  148. Format : E-AC-3

  149. Format/Info : Enhanced AC-3

  150. Commercial name : Dolby Digital Plus

  151. Codec ID : A_EAC3

  152. Duration : 1 h 23 min

  153. Bit rate mode : Constant

  154. Bit rate : 640 kb/s

  155. Channel(s) : 6 channels

  156. Channel layout : L R C LFE Ls Rs

  157. Sampling rate : 48.0 kHz

  158. Frame rate : 31.250 FPS (1536 SPF)

  159. Compression mode : Lossy

  160. Stream size : 383 MiB (4%)

  161. Title : Hungarian

  162. Language : Hungarian

  163. Service kind : Complete Main

  164. Default : No

  165. Forced : No


  166. Audio #7

  167. ID : 8

  168. Format : E-AC-3

  169. Format/Info : Enhanced AC-3

  170. Commercial name : Dolby Digital Plus

  171. Codec ID : A_EAC3

  172. Duration : 1 h 23 min

  173. Bit rate mode : Constant

  174. Bit rate : 640 kb/s

  175. Channel(s) : 6 channels

  176. Channel layout : L R C LFE Ls Rs

  177. Sampling rate : 48.0 kHz

  178. Frame rate : 31.250 FPS (1536 SPF)

  179. Compression mode : Lossy

  180. Stream size : 383 MiB (4%)

  181. Title : Italian

  182. Language : Italian

  183. Service kind : Complete Main

  184. Default : No

  185. Forced : No


  186. Audio #8

  187. ID : 9

  188. Format : E-AC-3

  189. Format/Info : Enhanced AC-3

  190. Commercial name : Dolby Digital Plus

  191. Codec ID : A_EAC3

  192. Duration : 1 h 23 min

  193. Bit rate mode : Constant

  194. Bit rate : 640 kb/s

  195. Channel(s) : 6 channels

  196. Channel layout : L R C LFE Ls Rs

  197. Sampling rate : 48.0 kHz

  198. Frame rate : 31.250 FPS (1536 SPF)

  199. Compression mode : Lossy

  200. Stream size : 383 MiB (4%)

  201. Title : Japanese

  202. Language : Japanese

  203. Service kind : Complete Main

  204. Default : No

  205. Forced : No


  206. Audio #9

  207. ID : 10

  208. Format : E-AC-3

  209. Format/Info : Enhanced AC-3

  210. Commercial name : Dolby Digital Plus

  211. Codec ID : A_EAC3

  212. Duration : 1 h 23 min

  213. Bit rate mode : Constant

  214. Bit rate : 640 kb/s

  215. Channel(s) : 6 channels

  216. Channel layout : L R C LFE Ls Rs

  217. Sampling rate : 48.0 kHz

  218. Frame rate : 31.250 FPS (1536 SPF)

  219. Compression mode : Lossy

  220. Stream size : 383 MiB (4%)

  221. Title : Brazilian Portuguese

  222. Language : Portuguese

  223. Service kind : Complete Main

  224. Default : No

  225. Forced : No


  226. Audio #10

  227. ID : 11

  228. Format : E-AC-3

  229. Format/Info : Enhanced AC-3

  230. Commercial name : Dolby Digital Plus

  231. Codec ID : A_EAC3

  232. Duration : 1 h 23 min

  233. Bit rate mode : Constant

  234. Bit rate : 640 kb/s

  235. Channel(s) : 6 channels

  236. Channel layout : L R C LFE Ls Rs

  237. Sampling rate : 48.0 kHz

  238. Frame rate : 31.250 FPS (1536 SPF)

  239. Compression mode : Lossy

  240. Stream size : 383 MiB (4%)

  241. Title : Russian

  242. Language : Russian

  243. Service kind : Complete Main

  244. Default : No

  245. Forced : No


  246. Audio #11

  247. ID : 12

  248. Format : E-AC-3

  249. Format/Info : Enhanced AC-3

  250. Commercial name : Dolby Digital Plus

  251. Codec ID : A_EAC3

  252. Duration : 1 h 23 min

  253. Bit rate mode : Constant

  254. Bit rate : 640 kb/s

  255. Channel(s) : 6 channels

  256. Channel layout : L R C LFE Ls Rs

  257. Sampling rate : 48.0 kHz

  258. Frame rate : 31.250 FPS (1536 SPF)

  259. Compression mode : Lossy

  260. Stream size : 383 MiB (4%)

  261. Title : Spanish

  262. Language : Spanish

  263. Service kind : Complete Main

  264. Default : No

  265. Forced : No


  266. Audio #12

  267. ID : 13

  268. Format : E-AC-3

  269. Format/Info : Enhanced AC-3

  270. Commercial name : Dolby Digital Plus

  271. Codec ID : A_EAC3

  272. Duration : 1 h 23 min

  273. Bit rate mode : Constant

  274. Bit rate : 640 kb/s

  275. Channel(s) : 6 channels

  276. Channel layout : L R C LFE Ls Rs

  277. Sampling rate : 48.0 kHz

  278. Frame rate : 31.250 FPS (1536 SPF)

  279. Compression mode : Lossy

  280. Stream size : 383 MiB (4%)

  281. Title : European Spanish

  282. Language : Spanish

  283. Service kind : Complete Main

  284. Default : No

  285. Forced : No


  286. Audio #13

  287. ID : 14

  288. Format : E-AC-3

  289. Format/Info : Enhanced AC-3

  290. Commercial name : Dolby Digital Plus

  291. Codec ID : A_EAC3

  292. Duration : 1 h 23 min

  293. Bit rate mode : Constant

  294. Bit rate : 640 kb/s

  295. Channel(s) : 6 channels

  296. Channel layout : L R C LFE Ls Rs

  297. Sampling rate : 48.0 kHz

  298. Frame rate : 31.250 FPS (1536 SPF)

  299. Compression mode : Lossy

  300. Stream size : 383 MiB (4%)

  301. Title : Thai

  302. Language : Thai

  303. Service kind : Complete Main

  304. Default : No

  305. Forced : No


  306. Audio #14

  307. ID : 15

  308. Format : E-AC-3

  309. Format/Info : Enhanced AC-3

  310. Commercial name : Dolby Digital Plus

  311. Codec ID : A_EAC3

  312. Duration : 1 h 23 min

  313. Bit rate mode : Constant

  314. Bit rate : 640 kb/s

  315. Channel(s) : 6 channels

  316. Channel layout : L R C LFE Ls Rs

  317. Sampling rate : 48.0 kHz

  318. Frame rate : 31.250 FPS (1536 SPF)

  319. Compression mode : Lossy

  320. Stream size : 383 MiB (4%)

  321. Title : Turkish

  322. Language : Turkish

  323. Service kind : Complete Main

  324. Default : No

  325. Forced : No


  326. Audio #15

  327. ID : 16

  328. Format : E-AC-3

  329. Format/Info : Enhanced AC-3

  330. Commercial name : Dolby Digital Plus

  331. Codec ID : A_EAC3

  332. Duration : 1 h 23 min

  333. Bit rate mode : Constant

  334. Bit rate : 640 kb/s

  335. Channel(s) : 6 channels

  336. Channel layout : L R C LFE Ls Rs

  337. Sampling rate : 48.0 kHz

  338. Frame rate : 31.250 FPS (1536 SPF)

  339. Compression mode : Lossy

  340. Stream size : 383 MiB (4%)

  341. Title : Polish - Dubbing

  342. Language : Polish

  343. Service kind : Complete Main

  344. Default : No

  345. Forced : No


  346. Audio #16

  347. ID : 17

  348. Format : E-AC-3

  349. Format/Info : Enhanced AC-3

  350. Commercial name : Dolby Digital Plus

  351. Codec ID : A_EAC3

  352. Duration : 1 h 23 min

  353. Bit rate mode : Constant

  354. Bit rate : 640 kb/s

  355. Channel(s) : 6 channels

  356. Channel layout : L R C LFE Ls Rs

  357. Sampling rate : 48.0 kHz

  358. Frame rate : 31.250 FPS (1536 SPF)

  359. Compression mode : Lossy

  360. Stream size : 383 MiB (4%)

  361. Title : Polish - Lektor

  362. Language : Polish

  363. Service kind : Complete Main

  364. Default : No

  365. Forced : No


  366. Text #1

  367. ID : 18

  368. Format : UTF-8

  369. Codec ID : S_TEXT/UTF8

  370. Codec ID/Info : UTF-8 Plain Text

  371. Duration : 1 h 21 min

  372. Bit rate : 80 b/s

  373. Count of elements : 1194

  374. Stream size : 48.2 KiB (0%)

  375. Title : English

  376. Language : English

  377. Default : Yes

  378. Forced : No


  379. Text #2

  380. ID : 19

  381. Format : UTF-8

  382. Codec ID : S_TEXT/UTF8

  383. Codec ID/Info : UTF-8 Plain Text

  384. Duration : 1 h 21 min

  385. Bit rate : 92 b/s

  386. Count of elements : 1044

  387. Stream size : 55.1 KiB (0%)

  388. Title : Arabic

  389. Language : Arabic

  390. Default : No

  391. Forced : No


  392. Text #3

  393. ID : 20

  394. Format : UTF-8

  395. Codec ID : S_TEXT/UTF8

  396. Codec ID/Info : UTF-8 Plain Text

  397. Duration : 1 h 21 min

  398. Bit rate : 56 b/s

  399. Count of elements : 1044

  400. Stream size : 33.7 KiB (0%)

  401. Title : Chinese Simplified

  402. Language : Chinese

  403. Default : No

  404. Forced : No


  405. Text #4

  406. ID : 21

  407. Format : UTF-8

  408. Codec ID : S_TEXT/UTF8

  409. Codec ID/Info : UTF-8 Plain Text

  410. Duration : 1 h 21 min

  411. Bit rate : 55 b/s

  412. Count of elements : 1063

  413. Stream size : 32.9 KiB (0%)

  414. Title : Chinese Traditional

  415. Language : Chinese

  416. Default : No

  417. Forced : No


  418. Text #5

  419. ID : 22

  420. Format : UTF-8

  421. Codec ID : S_TEXT/UTF8

  422. Codec ID/Info : UTF-8 Plain Text

  423. Duration : 1 h 21 min

  424. Bit rate : 49 b/s

  425. Count of elements : 1030

  426. Stream size : 29.5 KiB (0%)

  427. Title : Croatian

  428. Language : Croatian

  429. Default : No

  430. Forced : No


  431. Text #6

  432. ID : 23

  433. Format : UTF-8

  434. Codec ID : S_TEXT/UTF8

  435. Codec ID/Info : UTF-8 Plain Text

  436. Duration : 1 h 21 min

  437. Bit rate : 54 b/s

  438. Count of elements : 1014

  439. Stream size : 32.3 KiB (0%)

  440. Title : Czech

  441. Language : Czech

  442. Default : No

  443. Forced : No


  444. Text #7

  445. ID : 24

  446. Format : UTF-8

  447. Codec ID : S_TEXT/UTF8

  448. Codec ID/Info : UTF-8 Plain Text

  449. Duration : 1 h 21 min

  450. Bit rate : 51 b/s

  451. Count of elements : 938

  452. Stream size : 31.0 KiB (0%)

  453. Title : Danish

  454. Language : Danish

  455. Default : No

  456. Forced : No


  457. Text #8

  458. ID : 25

  459. Format : UTF-8

  460. Codec ID : S_TEXT/UTF8

  461. Codec ID/Info : UTF-8 Plain Text

  462. Duration : 1 h 21 min

  463. Bit rate : 48 b/s

  464. Count of elements : 865

  465. Stream size : 28.9 KiB (0%)

  466. Title : Dutch

  467. Language : Dutch

  468. Default : No

  469. Forced : No


  470. Text #9

  471. ID : 26

  472. Format : UTF-8

  473. Codec ID : S_TEXT/UTF8

  474. Codec ID/Info : UTF-8 Plain Text

  475. Duration : 1 h 21 min

  476. Bit rate : 52 b/s

  477. Count of elements : 856

  478. Stream size : 31.6 KiB (0%)

  479. Title : Finnish

  480. Language : Finnish

  481. Default : No

  482. Forced : No


  483. Text #10

  484. ID : 27

  485. Format : UTF-8

  486. Codec ID : S_TEXT/UTF8

  487. Codec ID/Info : UTF-8 Plain Text

  488. Duration : 1 h 21 min

  489. Bit rate : 54 b/s

  490. Count of elements : 941

  491. Stream size : 32.5 KiB (0%)

  492. Title : French

  493. Language : French

  494. Default : No

  495. Forced : No


  496. Text #11

  497. ID : 28

  498. Format : UTF-8

  499. Codec ID : S_TEXT/UTF8

  500. Codec ID/Info : UTF-8 Plain Text

  501. Duration : 1 h 21 min

  502. Bit rate : 55 b/s

  503. Count of elements : 954

  504. Stream size : 33.2 KiB (0%)

  505. Title : German

  506. Language : German

  507. Default : No

  508. Forced : No


  509. Text #12

  510. ID : 29

  511. Format : UTF-8

  512. Codec ID : S_TEXT/UTF8

  513. Codec ID/Info : UTF-8 Plain Text

  514. Duration : 1 h 21 min

  515. Bit rate : 100 b/s

  516. Count of elements : 1047

  517. Stream size : 59.8 KiB (0%)

  518. Title : Greek

  519. Language : Greek

  520. Default : No

  521. Forced : No


  522. Text #13

  523. ID : 30

  524. Format : UTF-8

  525. Codec ID : S_TEXT/UTF8

  526. Codec ID/Info : UTF-8 Plain Text

  527. Duration : 1 h 21 min

  528. Bit rate : 84 b/s

  529. Count of elements : 1045

  530. Stream size : 50.3 KiB (0%)

  531. Title : Hebrew

  532. Language : Hebrew

  533. Default : No

  534. Forced : No


  535. Text #14

  536. ID : 31

  537. Format : UTF-8

  538. Codec ID : S_TEXT/UTF8

  539. Codec ID/Info : UTF-8 Plain Text

  540. Duration : 1 h 21 min

  541. Bit rate : 53 b/s

  542. Count of elements : 1031

  543. Stream size : 31.9 KiB (0%)

  544. Title : Hungarian

  545. Language : Hungarian

  546. Default : No

  547. Forced : No


  548. Text #15

  549. ID : 32

  550. Format : UTF-8

  551. Codec ID : S_TEXT/UTF8

  552. Codec ID/Info : UTF-8 Plain Text

  553. Duration : 1 h 21 min

  554. Bit rate : 50 b/s

  555. Count of elements : 1042

  556. Stream size : 30.2 KiB (0%)

  557. Title : Indonesian

  558. Language : Indonesian

  559. Default : No

  560. Forced : No


  561. Text #16

  562. ID : 33

  563. Format : UTF-8

  564. Codec ID : S_TEXT/UTF8

  565. Codec ID/Info : UTF-8 Plain Text

  566. Duration : 1 h 21 min

  567. Bit rate : 55 b/s

  568. Count of elements : 930

  569. Stream size : 33.3 KiB (0%)

  570. Title : Italian

  571. Language : Italian

  572. Default : No

  573. Forced : No


  574. Text #17

  575. ID : 34

  576. Format : UTF-8

  577. Codec ID : S_TEXT/UTF8

  578. Codec ID/Info : UTF-8 Plain Text

  579. Duration : 1 h 21 min

  580. Bit rate : 56 b/s

  581. Count of elements : 941

  582. Stream size : 33.8 KiB (0%)

  583. Title : Japanese

  584. Language : Japanese

  585. Default : No

  586. Forced : No


  587. Text #18

  588. ID : 35

  589. Format : UTF-8

  590. Codec ID : S_TEXT/UTF8

  591. Codec ID/Info : UTF-8 Plain Text

  592. Duration : 1 h 21 min

  593. Bit rate : 67 b/s

  594. Count of elements : 1057

  595. Stream size : 40.5 KiB (0%)

  596. Title : Korean

  597. Language : Korean

  598. Default : No

  599. Forced : No


  600. Text #19

  601. ID : 36

  602. Format : UTF-8

  603. Codec ID : S_TEXT/UTF8

  604. Codec ID/Info : UTF-8 Plain Text

  605. Duration : 1 h 21 min

  606. Bit rate : 52 b/s

  607. Count of elements : 992

  608. Stream size : 31.5 KiB (0%)

  609. Title : Malay

  610. Language : Malay

  611. Default : No

  612. Forced : No


  613. Text #20

  614. ID : 37

  615. Format : UTF-8

  616. Codec ID : S_TEXT/UTF8

  617. Codec ID/Info : UTF-8 Plain Text

  618. Duration : 1 h 21 min

  619. Bit rate : 51 b/s

  620. Count of elements : 900

  621. Stream size : 30.8 KiB (0%)

  622. Title : Norwegian Bokmal

  623. Language : Norwegian Bokmal

  624. Default : No

  625. Forced : No


  626. Text #21

  627. ID : 38

  628. Format : UTF-8

  629. Codec ID : S_TEXT/UTF8

  630. Codec ID/Info : UTF-8 Plain Text

  631. Duration : 1 h 21 min

  632. Bit rate : 53 b/s

  633. Count of elements : 1023

  634. Stream size : 31.7 KiB (0%)

  635. Title : Polish

  636. Language : Polish

  637. Default : No

  638. Forced : No


  639. Text #22

  640. ID : 39

  641. Format : UTF-8

  642. Codec ID : S_TEXT/UTF8

  643. Codec ID/Info : UTF-8 Plain Text

  644. Duration : 1 h 21 min

  645. Bit rate : 53 b/s

  646. Count of elements : 1030

  647. Stream size : 31.8 KiB (0%)

  648. Title : Portuguese

  649. Language : Portuguese

  650. Default : No

  651. Forced : No


  652. Text #23

  653. ID : 40

  654. Format : UTF-8

  655. Codec ID : S_TEXT/UTF8

  656. Codec ID/Info : UTF-8 Plain Text

  657. Duration : 1 h 21 min

  658. Bit rate : 51 b/s

  659. Count of elements : 1018

  660. Stream size : 31.0 KiB (0%)

  661. Title : Brazilian Portuguese

  662. Language : Portuguese

  663. Default : No

  664. Forced : No


  665. Text #24

  666. ID : 41

  667. Format : UTF-8

  668. Codec ID : S_TEXT/UTF8

  669. Codec ID/Info : UTF-8 Plain Text

  670. Duration : 1 h 21 min

  671. Bit rate : 60 b/s

  672. Count of elements : 964

  673. Stream size : 36.0 KiB (0%)

  674. Title : Romanian

  675. Language : Romanian

  676. Default : No

  677. Forced : No


  678. Text #25

  679. ID : 42

  680. Format : UTF-8

  681. Codec ID : S_TEXT/UTF8

  682. Codec ID/Info : UTF-8 Plain Text

  683. Duration : 1 h 21 min

  684. Bit rate : 88 b/s

  685. Count of elements : 1020

  686. Stream size : 52.9 KiB (0%)

  687. Title : Russian

  688. Language : Russian

  689. Default : No

  690. Forced : No


  691. Text #26

  692. ID : 43

  693. Format : UTF-8

  694. Codec ID : S_TEXT/UTF8

  695. Codec ID/Info : UTF-8 Plain Text

  696. Duration : 1 h 21 min

  697. Bit rate : 53 b/s

  698. Count of elements : 963

  699. Stream size : 32.2 KiB (0%)

  700. Title : Spanish

  701. Language : Spanish

  702. Default : No

  703. Forced : No


  704. Text #27

  705. ID : 44

  706. Format : UTF-8

  707. Codec ID : S_TEXT/UTF8

  708. Codec ID/Info : UTF-8 Plain Text

  709. Duration : 1 h 21 min

  710. Bit rate : 50 b/s

  711. Count of elements : 1028

  712. Stream size : 29.9 KiB (0%)

  713. Title : European Spanish

  714. Language : Spanish

  715. Default : No

  716. Forced : No


  717. Text #28

  718. ID : 45

  719. Format : UTF-8

  720. Codec ID : S_TEXT/UTF8

  721. Codec ID/Info : UTF-8 Plain Text

  722. Duration : 1 h 21 min

  723. Bit rate : 54 b/s

  724. Count of elements : 841

  725. Stream size : 32.7 KiB (0%)

  726. Title : Swedish

  727. Language : Swedish

  728. Default : No

  729. Forced : No


  730. Text #29

  731. ID : 46

  732. Format : UTF-8

  733. Codec ID : S_TEXT/UTF8

  734. Codec ID/Info : UTF-8 Plain Text

  735. Duration : 1 h 21 min

  736. Bit rate : 146 b/s

  737. Count of elements : 1043

  738. Stream size : 87.3 KiB (0%)

  739. Title : Thai

  740. Language : Thai

  741. Default : No

  742. Forced : No


  743. Text #30

  744. ID : 47

  745. Format : UTF-8

  746. Codec ID : S_TEXT/UTF8

  747. Codec ID/Info : UTF-8 Plain Text

  748. Duration : 1 h 21 min

  749. Bit rate : 57 b/s

  750. Count of elements : 978

  751. Stream size : 34.1 KiB (0%)

  752. Title : Turkish

  753. Language : Turkish

  754. Default : No

  755. Forced : No


  756. Text #31

  757. ID : 48

  758. Format : UTF-8

  759. Codec ID : S_TEXT/UTF8

  760. Codec ID/Info : UTF-8 Plain Text

  761. Duration : 1 h 21 min

  762. Bit rate : 81 b/s

  763. Count of elements : 1045

  764. Stream size : 48.9 KiB (0%)

  765. Title : Ukrainian

  766. Language : Ukrainian

  767. Default : No

  768. Forced : No


  769. Text #32

  770. ID : 49

  771. Format : UTF-8

  772. Codec ID : S_TEXT/UTF8

  773. Codec ID/Info : UTF-8 Plain Text

  774. Duration : 1 h 21 min

  775. Bit rate : 81 b/s

  776. Count of elements : 1039

  777. Stream size : 48.7 KiB (0%)

  778. Title : Vietnamese

  779. Language : Vietnamese

  780. Default : No

  781. Forced : No


文件下载


除非特别注明,本文『猎魔人:狼之噩梦[中文字幕].The.Witcher.Nightmare.of.the.Wolf.2021.1080p.NF.WEB-DL.DDP5.1.Atmos.x264 8.75GB』来源于互联网机器人自动抓取,非本站原创。 浮游电影网不对本文拥有版权,如有侵犯,请联系邮箱:fuyouu#yandex.com[#换成@]投诉。我们会在15个工作日内删除。 但烦请转载时请标明出处:“本文转载于『浮游电影网』,原文地址:https://www.fuyouu.com/13987.html

评论吧骚年!

发表你的见解   

昵称*

E-mail*(建议输入,以便收到博主回复的提示邮件)

验证码*

您可以使用eMule或eMule Mod(Windows)、aMule(Win、Linux、Mac)等软件下载eD2k链接。。
eMule收藏集(.emulecollection)文件是您选中的所有链接的列表文件。eMule可以直接下载它们。
按住SHIFT键选择可以选中多个选择框。
可用文件名和大小选择器来选择文件。
文件名选择器帮您根据文件名称或后缀来选择文件。不分大小写。
符号使用:
和:空格( )、+
不包含:-
或:|
转义:一对英文引号("");
匹配开头:^
匹配结尾:$
例如:
选中所有名称中包含有“eMule”或“0.49c”字眼,但不包含有“exe”字眼的:emule|0.49c -exe
选中所有名称的开头是“eMule”,结尾是“0.49c”的:^emule 0.49c$
选中所有名称中带有“eMule 0.49c”的(必须是“eMule 0.49c”,中间没有别的字符,不能是“eMule fake 0.49c”),需要转义:"emule 0.49c"
大小选择器帮您根据文件大小选择文件。