当前位置: 首页 >> 国产电影 >> 火星异变[国语配音/中文字幕].Mutation.on.Mars.2021.1080p.WEB-DL.H265.DDP5.1 1.32GB >> 正文

火星异变[国语配音/中文字幕].Mutation.on.Mars.2021.1080p.WEB-DL.H265.DDP5.1 1.32GB

2021年08月28日 11:31:16     电影发布:来源于网络     电影分类:国产电影     评论(0)    

火星异变[国语配音/中文字幕].Mutation.on.Mars.2021.1080p.WEB DL.H265.DDP5.1 1.32GB 灾难片 科幻片 剧情片 国产电影  第1张

◎译 名 火星异变 / Mars Anomaly / Mutation on Mars

◎年 代 2021

◎产 地 中国大陆

◎类 别 剧情 / 科幻 / 灾难

◎语 言 汉语普通话

◎上映日期 2021-08-27(中国大陆)

◎IMDb链接 https://www.imdb.com/title//

◎豆瓣链接 https://movie.douban.com/subject/35027723/

◎片 长 75分钟

◎导 演 刘娜 Na Liu (id:1402839)

◎演 员 石凉 Liang Shi (id:1313009)

任重 Zhong Ren (id:1315001)

索笑坤 Xiaokun Suo (id:1364691)

刘馨棋 Xinqi Liu (id:1365025)

辛祚宇 Zuoyu Xin (id:1367183)

李辛喆 Xinzhe Li (id:1425762)

范子绮 Ziqi Fan (id:1420509)

◎标 签 中国科幻 / 科幻 / 2021 / 中国 / 变异生物 / 硬核 / 惊悚 / 话唠

◎简 介

近未来,地球资源逐渐匮乏,为了延续百代子孙生存的希望,各国顶尖科学家携数种动植物物种前往火星研究,希望通过先进的科学技术改善火星的环境使其适合人类居住。

实验中,随着基因种子库的生命体长大,事态的发展开始失去了控制,生物发生变异,具有强大的攻击力和一定的智力,火星计划联盟的所有专家危在旦夕。

中国派出航天员进行火星救援,面对变异生物的攻击与追杀以及小行星即将撞击火星的双重危机,中国航天员不顾个人安危,为完成救援任务与时间赛跑…

  1. ##### MediaInfo ######

  2. General

  3. Unique ID : 16480207785453006304111033117109926809 (0xC65F8FA1C1C31859A385F6D2B243B99)

  4. Complete name : 火星异变.Mutation.on.Mars.2021.1080p.WEB-DL.H265.DDP5.1-10003@BBQDDQ.COM.mkv

  5. Format : Matroska

  6. Format version : Version 4

  7. File size : 1.31 GiB

  8. Duration : 1 h 15 min

  9. Overall bit rate : 2 503 kb/s

  10. Encoded date : UTC 2021-08-27 12:36:23

  11. Writing application : mkvmerge v51.0.0 ('I Wish') 64-bit

  12. Writing library : libebml v1.4.0 + libmatroska v1.6.2


  13. Video

  14. ID : 1

  15. Format : HEVC

  16. Format/Info : High Efficiency Video Coding

  17. Format profile : Main@L4@Main

  18. Codec ID : V_MPEGH/ISO/HEVC

  19. Duration : 1 h 15 min

  20. Bit rate : 2 053 kb/s

  21. Width : 1 920 pixels

  22. Height : 712 pixels

  23. Display aspect ratio : 2.697

  24. Frame rate mode : Constant

  25. Frame rate : 24.000 FPS

  26. Color space : YUV

  27. Chroma subsampling : 4:2:0

  28. Bit depth : 8 bits

  29. Bits/(Pixel*Frame) : 0.063

  30. Stream size : 1.08 GiB (82%)

  31. Default : Yes

  32. Forced : No


  33. Audio

  34. ID : 2

  35. Format : E-AC-3 JOC

  36. Format/Info : Enhanced AC-3 with Joint Object Coding

  37. Commercial name : Dolby Digital Plus with Dolby Atmos

  38. Codec ID : A_EAC3

  39. Duration : 1 h 15 min

  40. Bit rate mode : Constant

  41. Bit rate : 448 kb/s

  42. Channel(s) : 6 channels

  43. Channel layout : L R C LFE Ls Rs

  44. Sampling rate : 48.0 kHz

  45. Frame rate : 31.250 FPS (1536 SPF)

  46. Compression mode : Lossy

  47. Stream size : 241 MiB (18%)

  48. Service kind : Complete Main

  49. Default : Yes

  50. Forced : No

  51. Complexity index : 16

  52. Number of dynamic objects : 15

  53. Bed channel count : 1 channel

  54. Bed channel configuration : LFE



文件下载
资源名称:火星异变[国语配音/


除非特别注明,本文『火星异变[国语配音/中文字幕].Mutation.on.Mars.2021.1080p.WEB-DL.H265.DDP5.1 1.32GB』来源于互联网机器人自动抓取,非本站原创。 浮游电影网不对本文拥有版权,如有侵犯,请联系邮箱:fuyouu#yandex.com[#换成@]投诉。我们会在15个工作日内删除。 但烦请转载时请标明出处:“本文转载于『浮游电影网』,原文地址:https://www.fuyouu.com/13984.html

评论吧骚年!

发表你的见解   

昵称*

E-mail*(建议输入,以便收到博主回复的提示邮件)

验证码*

您可以使用eMule或eMule Mod(Windows)、aMule(Win、Linux、Mac)等软件下载eD2k链接。。
eMule收藏集(.emulecollection)文件是您选中的所有链接的列表文件。eMule可以直接下载它们。
按住SHIFT键选择可以选中多个选择框。
可用文件名和大小选择器来选择文件。
文件名选择器帮您根据文件名称或后缀来选择文件。不分大小写。
符号使用:
和:空格( )、+
不包含:-
或:|
转义:一对英文引号("");
匹配开头:^
匹配结尾:$
例如:
选中所有名称中包含有“eMule”或“0.49c”字眼,但不包含有“exe”字眼的:emule|0.49c -exe
选中所有名称的开头是“eMule”,结尾是“0.49c”的:^emule 0.49c$
选中所有名称中带有“eMule 0.49c”的(必须是“eMule 0.49c”,中间没有别的字符,不能是“eMule fake 0.49c”),需要转义:"emule 0.49c"
大小选择器帮您根据文件大小选择文件。