当前位置: 首页 >> 欧美电影 >> 酣歌畅戏[简繁字幕].Topsy-Turvy.1999.Criterion.Collection.1080p.BluRay.x265.10bit.DD/5.1.MNHD 9.81GB >> 正文

酣歌畅戏[简繁字幕].Topsy-Turvy.1999.Criterion.Collection.1080p.BluRay.x265.10bit.DD/5.1.MNHD 9.81GB

2021年08月28日 11:28:37     电影发布:来源于网络     电影分类:欧美电影     评论(0)    

酣歌畅戏[简繁字幕].Topsy Turvy.1999.Criterion.Collection.1080p.BluRay.x265.10bit.DD/5.1.MNHD 9.81GB 歌舞 音乐片 传记 喜剧片 剧情片 欧美电影  第1张

◎译 名 酣歌畅戏 / 斗气歌剧院 / 颠三倒四

◎片 名 Topsy-Turvy

◎年 代 1999

◎产 地 英国

◎类 别 剧情 / 喜剧 / 音乐 / 歌舞 / 传记

◎语 言 英语 / 法语 / 德语 / 日语 / 意大利语

◎上映日期 1999-12-03

◎IMDb链接 https://www.imdb.com/title/tt0151568/

◎豆瓣评分 7.2/10 (632人评价)

◎豆瓣链接 https://movie.douban.com/subject/1293528/

◎片 长 160 分钟

◎导 演 迈克·李 Mike Leigh (id:1032108)

◎编 剧 迈克·李 Mike Leigh (id:1032108)

◎演 员 吉姆·布劳德本特 Jim Broadbent (id:1019049)

阿兰·柯德勒 Allan Corduner (id:1000392)

蒂莫西·斯波 Timothy Spall (id:1031872)

莱丝利·曼维尔 Lesley Manville (id:1032219)

凯文·麦克基德 Kevin McKidd (id:1022598)

雪莉·亨德森 Shirley Henderson (id:1036426)

弗朗西斯·李 Francis Lee (id:1368880)

多萝西·阿特金森 Dorothy Atkinson (id:1342774)

安迪·瑟金斯 Andy Serkis (id:1002708)

德克斯特·弗莱彻 Dexter Fletcher (id:1007028)

Sukie Smith Sukie Smith (id:1028719)

路易斯·勾德 Louise Gold (id:1285028)

希瑟·克兰妮 Heather Craney (id:1281443)

布里德·布伦南 Brid Brennan (id:1279241)

迪克·蒲波 Dick Pope (id:1276566)

罗宾·塞尔斯 Robin Sales (id:1296509)

妮娜·古德 Nina Gold (id:1276213)

伊芙·斯图尔特 Eve Stewart (id:1298435)

约翰·布什 John Bush (id:1279736)

特雷福·普朗德 Trefor Proud (id:1294946)

克里斯汀·布伦戴尔 Christine Blundell (id:1278844)

◎标 签 英国 / 迈克·李 / 音乐 / 英国电影 / MikeLeigh / 传记 / 1999 / CC

◎简 介

一部以十九世纪为背景的古装剧,处境是豪华的歌剧院,主角是一对歌剧作曲及作词排挡。上半部是两人的斗气斗戏,下半段则讲作曲家受日本文化感染而编出经典剧目《THE MIKADO》。影片多幕戏中台上戏,令人叹为观止。

◎获奖情况 (共11项)

第72届奥斯卡金像奖 (2000)

最佳原创剧本(提名)

└──迈克·李 (id:1032108)

最佳艺术指导(提名)

最佳服装设计

└──林迪·海明 (id:1025450)

最佳化妆

第56届威尼斯电影节 (1999)

主竞赛单元 金狮奖 (提名)

└──迈克·李 (id:1032108)

沃尔皮杯 最佳男演员

└──吉姆·布劳德本特 (id:1019049)

第53届英国电影学院奖 (2000)

电影奖 最佳英国影片(提名)

电影奖 最佳男主角(提名)

└──吉姆·布劳德本特 (id:1019049)

电影奖 最佳男配角(提名)

└──蒂莫西·斯波 (id:1031872)

电影奖 最佳原创剧本(提名)

└──迈克·李 (id:1032108)

电影奖 最佳化妆/发型

└──克里斯汀·布伦戴尔 (id:1278844)

  1. ##### MediaInfo ######

  2. General

  3. Unique ID : 134847126089510805058725450776800644365 (0x65729C9F4138E83896818DE12D03CD0D)

  4. Complete name : Topsy-Turvy.1999.Criterion.Collection.1080p.BluRay.x265.10bit.DD+5.1.MNHD-10018@BBQDDQ.COM.mkv

  5. Format : Matroska

  6. Format version : Version 4

  7. File size : 9.81 GiB

  8. Duration : 2 h 40 min

  9. Overall bit rate : 8 722 kb/s

  10. Encoded date : UTC 2021-08-27 09:22:48

  11. Writing application : mkvmerge v45.0.0 ('Heaven in Pennies') 64-bit

  12. Writing library : libebml v1.3.10 + libmatroska v1.5.2

  13. Cover : Yes

  14. Attachments : cover


  15. Video

  16. ID : 1

  17. Format : HEVC

  18. Format/Info : High Efficiency Video Coding

  19. Format profile : Main 10@L5.1@High

  20. Codec ID : V_MPEGH/ISO/HEVC

  21. Duration : 2 h 40 min

  22. Bit rate : 7 694 kb/s

  23. Width : 1 920 pixels

  24. Height : 1 080 pixels

  25. Display aspect ratio : 16:9

  26. Frame rate mode : Constant

  27. Frame rate : 23.976 (24000/1001/53354) FPS

  28. Color space : YUV

  29. Chroma subsampling : 4:2:0

  30. Bit depth : 10 bits

  31. Bits/(Pixel*Frame) : 0.155

  32. Stream size : 8.65 GiB (88%)

  33. Writing library : x265 3.5:[Linux][GCC 9.3.0][64 bit] 10bit

  34. Encoding settings : cpuid=533541111039 / frame-threads=5 / wpp / pmode / no-pme / no-psnr / no-ssim / log-level=2 / input-csp=1 / input-res=1920x1080 / interlace=0 / total-frames=231558 / level-idc=0 / high-tier=1 / uhd-bd=0 / ref=6 / no-allow-non-conformance / no-repeat-headers / annexb / no-aud / no-hrd / info / hash=0 / no-temporal-layers / no-open-gop / min-keyint=23 / keyint=250 / gop-lookahead=0 / bframes=8 / b-adapt=2 / b-pyramid / bframe-bias=0 / rc-lookahead=80 / lookahead-slices=0 / NTMzNTQ=uuDQuD2mJt9fsCf / scenecut=40 / hist-scenecut=0 / radl=0 / no-splice / no-intra-refresh / ctu=32 / min-cu-size=8 / no-rect / no-amp / max-tu-size=32 / tu-inter-depth=4 / tu-intra-depth=4 / limit-tu=0 / rdoq-level=2 / dynamic-rd=0.00 / no-ssim-rd / signhide / no-tskip / nr-intra=0 / nr-inter=0 / no-constrained-intra / strong-intra-smoothing / max-merge=5 / limit-refs=0 / no-limit-modes / me=3 / subme=7 / merange=57 / temporal-mvp / no-frame-dup / no-hme / weightp / weightb / no-analyze-src-pics / deblock=-3:-3 / no-sao / no-sao-non-deblock / rd=4 / selective-sao=0 / no-early-skip / no-rskip / no-fast-intra / no-tskip-fast / no-cu-lossless / b-intra / no-splitrd-skip / rdpenalty=0 / psy-rd=1.00 / psy-rdoq=1.00 / no-rd-refine / no-lossless / cbqpoffs=0 / crqpoffs=0 / rc=crf / crf=20.0 / qcomp=0.60 / qpstep=4 / stats-write=0 / stats-read=0 / vbv-maxrate=160000 / vbv-bufsize=160000 / vbv-init=0.9 / min-vbv-fullness=50.0 / max-vbv-fullness=80.0 / crf-max=0.0 / crf-min=0.0 / ipratio=1.30 / pbratio=1.20 / aq-mode=2 / aq-strength=1.00 / cutree / zone-count=0 / no-strict-cbr / qg-size=32 / no-rc-grain / qpmax=69 / qpmin=0 / no-const-vbv / sar=0 / overscan=0 / videoformat=5 / range=0 / colorprim=1 / transfer=1 / colormatrix=1 / chromaloc=0 / display-window=0 / cll=0,0 / min-luma=0 / max-luma=1023 / log2-max-poc-lsb=8 / vui-timing-info / vui-hrd-info / slices=1 / no-opt-qp-pps / no-opt-ref-list-length-pps / no-multi-pass-opt-rps / scenecut-bias=0.05 / hist-threshold=0.03 / no-opt-cu-delta-qp / no-aq-motion / no-hdr10 / no-hdr10-opt / no-dhdr10-opt / no-idr-recovery-sei / analysis-reuse-level=0 / analysis-save-reuse-level=0 / analysis-load-reuse-level=0 / scale-factor=0 / refine-intra=0 / refine-inter=0 / refine-mv=1 / refine-ctu-distortion=0 / no-limit-sao / ctu-info=0 / no-lowpass-dct / refine-analysis-type=0 / copy-pic=1 / max-ausize-factor=1.0 / no-dynamic-refine / no-single-sei / no-hevc-aq / no-svt / no-field / qp-adaptation-range=1.00 / scenecut-aware-qp=0conformance-window-offsets / right=0 / bottom=0 / NTMzNTQ= / decoder-max-rate=0 / no-vbv-live-multi-pass

  35. Default : Yes

  36. Forced : No

  37. Color range : Limited

  38. Color primaries : BT.709

  39. Transfer characteristics : BT.709

  40. Matrix coefficients : BT.709


  41. Audio #1

  42. ID : 2

  43. Format : E-AC-3

  44. Format/Info : Enhanced AC-3

  45. Commercial name : Dolby Digital Plus

  46. Codec ID : A_EAC3

  47. Duration : 2 h 40 min

  48. Bit rate mode : Constant

  49. Bit rate : 768 kb/s

  50. Channel(s) : 6 channels

  51. Channel layout : L R C LFE Ls Rs

  52. Sampling rate : 48.0 kHz

  53. Frame rate : 62.500 FPS (768 SPF)

  54. Compression mode : Lossy

  55. Stream size : 884 MiB (9%)

  56. Language : English

  57. Service kind : Complete Main

  58. Default : Yes

  59. Forced : No


  60. Audio #2

  61. ID : 3

  62. Format : AC-3

  63. Format/Info : Audio Coding 3

  64. Commercial name : Dolby Digital

  65. Codec ID : A_AC3

  66. Duration : 2 h 40 min

  67. Bit rate mode : Constant

  68. Bit rate : 192 kb/s

  69. Channel(s) : 2 channels

  70. Channel layout : L R

  71. Sampling rate : 48.0 kHz

  72. Frame rate : 31.250 FPS (1536 SPF)

  73. Compression mode : Lossy

  74. Stream size : 221 MiB (2%)

  75. Language : English

  76. Service kind : Complete Main

  77. Default : No

  78. Forced : No


  79. Text #1

  80. ID : 4

  81. Format : PGS

  82. Muxing mode : zlib

  83. Codec ID : S_HDMV/PGS

  84. Codec ID/Info : Picture based subtitle format used on BDs/HD-DVDs

  85. Duration : 2 h 36 min

  86. Bit rate : 61.4 kb/s

  87. Count of elements : 5062

  88. Stream size : 68.7 MiB (1%)

  89. Language : English

  90. Default : No

  91. Forced : No


  92. Text #2

  93. ID : 5

  94. Format : PGS

  95. Muxing mode : zlib

  96. Codec ID : S_HDMV/PGS

  97. Codec ID/Info : Picture based subtitle format used on BDs/HD-DVDs

  98. Duration : 2 h 36 min

  99. Bit rate : 36.1 kb/s

  100. Count of elements : 4851

  101. Stream size : 40.5 MiB (0%)

  102. Title : Simplified Chinese

  103. Language : Chinese

  104. Default : Yes

  105. Forced : No


  106. Text #3

  107. ID : 6

  108. Format : PGS

  109. Muxing mode : zlib

  110. Codec ID : S_HDMV/PGS

  111. Codec ID/Info : Picture based subtitle format used on BDs/HD-DVDs

  112. Duration : 2 h 36 min

  113. Bit rate : 36.9 kb/s

  114. Count of elements : 4851

  115. Stream size : 41.4 MiB (0%)

  116. Title : Traditional Chinese

  117. Language : Chinese

  118. Default : No

  119. Forced : No


  120. Menu

  121. 00:00:00.000 : en:Princess Ida

  122. 00:09:30.069 : en:Nothing to discuss

  123. 00:18:31.151 : en:Heat wave

  124. 00:27:15.175 : en:Luncheons

  125. 00:34:55.384 : en:Working dilemma

  126. 00:41:55.471 : en:"The Lost Chord"

  127. 00:45:50.164 : en:The revival business

  128. 00:56:00.148 : en:"Profoundly uncongenial"

  129. 01:02:21.028 : en:The Japanese Exhibition

  130. 01:11:35.082 : en:Inspiration

  131. 01:18:16.316 : en:"Another dozen"

  132. 01:27:17.649 : en:"Ready to go"

  133. 01:39:00.809 : en:"Three Little Maids"

  134. 01:46:47.401 : en:"Corroborative detail"

  135. 01:55:17.619 : en:The Mikado's song

  136. 02:05:21.347 : en:A forceful request

  137. 02:13:03.433 : en:Opening

  138. 02:16:34.519 : en:Second act

  139. 02:27:55.324 : en:Old demons

  140. 02:34:09.490 : en:"The sun and I"

  141. 02:37:23.851 : en:Closing credits

  142. 02:40:57.648 : en:Color bars




文件下载


除非特别注明,本文『酣歌畅戏[简繁字幕].Topsy-Turvy.1999.Criterion.Collection.1080p.BluRay.x265.10bit.DD/5.1.MNHD 9.81GB』来源于互联网机器人自动抓取,非本站原创。 浮游电影网不对本文拥有版权,如有侵犯,请联系邮箱:fuyouu#yandex.com[#换成@]投诉。我们会在15个工作日内删除。 但烦请转载时请标明出处:“本文转载于『浮游电影网』,原文地址:https://www.fuyouu.com/13982.html

评论吧骚年!

发表你的见解   

昵称*

E-mail*(建议输入,以便收到博主回复的提示邮件)

验证码*

您可以使用eMule或eMule Mod(Windows)、aMule(Win、Linux、Mac)等软件下载eD2k链接。。
eMule收藏集(.emulecollection)文件是您选中的所有链接的列表文件。eMule可以直接下载它们。
按住SHIFT键选择可以选中多个选择框。
可用文件名和大小选择器来选择文件。
文件名选择器帮您根据文件名称或后缀来选择文件。不分大小写。
符号使用:
和:空格( )、+
不包含:-
或:|
转义:一对英文引号("");
匹配开头:^
匹配结尾:$
例如:
选中所有名称中包含有“eMule”或“0.49c”字眼,但不包含有“exe”字眼的:emule|0.49c -exe
选中所有名称的开头是“eMule”,结尾是“0.49c”的:^emule 0.49c$
选中所有名称中带有“eMule 0.49c”的(必须是“eMule 0.49c”,中间没有别的字符,不能是“eMule fake 0.49c”),需要转义:"emule 0.49c"
大小选择器帮您根据文件大小选择文件。