当前位置: 首页 >> 欧美电影 >> 鱼缸[简繁字幕].Fish.Tank.2009.Criterion.Collection.1080p.BluRay.x265.10bit.DD/5.1.MNHD 6.77GB >> 正文

鱼缸[简繁字幕].Fish.Tank.2009.Criterion.Collection.1080p.BluRay.x265.10bit.DD/5.1.MNHD 6.77GB

2021年08月28日 11:27:38     电影发布:来源于网络     电影分类:欧美电影     评论(0)    

鱼缸[简繁字幕].Fish.Tank.2009.Criterion.Collection.1080p.BluRay.x265.10bit.DD/5.1.MNHD 6.77GB 剧情片 欧美电影  第1张

◎译 名 鱼缸 / 90后·少女·性起义(港) / 发现心节奏(台) / 90后突围少女 / 鱼缸里的青春

◎片 名 Fish Tank

◎年 代 2009

◎产 地 英国 / 荷兰

◎类 别 剧情

◎语 言 英语

◎上映日期 2009-09-11(英国)

◎IMDb链接 https://www.imdb.com/title/tt1232776/

◎豆瓣评分 7.5/10 (29237人评价)

◎豆瓣链接 https://movie.douban.com/subject/3073875/

◎片 长 123分钟

◎导 演 安德里亚·阿诺德 Andrea Arnold (id:1000325)

◎编 剧 安德里亚·阿诺德 Andrea Arnold (id:1000325)

◎演 员 凯蒂·贾维斯 Katie Jarvis (id:1009429)

迈克尔·法斯宾德 Michael Fassbender (id:1000010)

凯利斯顿·韦勒英 Kierston Wareing (id:1311031)

哈里·崔德威 Harry Treadaway (id:1049884)

杰森·马扎 Jason Maza (id:1045403)

丽贝卡·格里菲斯 Rebecca Griffiths (id:1322147)

凯斯·卡桑德 Kees Kasander (id:1288165)

克里斯汀·兰根 Christine Langan (id:1289391)

罗比·瑞恩 Robbie Ryan (id:1323276)

马雷斯·朗根 Marese Langan (id:1289392)

Jonathan Privett Jonathan Privett (id:1294935)

◎标 签 英国 / 青春 / 成长 / 英国电影 / 剧情 / 2009 / 鱼缸 / AndreaArnold

◎简 介

15岁的米娅(凯蒂·贾维斯 Katie Jarvis 饰)性格叛逆而古怪,惹事生非的她不仅被学校开除而且连她最好的朋友都离她而去。米娅热爱跳舞,然而身边却似乎并没有多少人在意她那充满热情的舞步,直到一个叫康纳(迈克尔·法斯宾德 Michael Fassbender 饰)的男人出现。康纳是母亲的男朋友,在他与母亲同居的日子里,米娅被这个英俊而又友善的男人所吸引。在康纳的支持和鼓励下,米娅得到了一次舞蹈面试的机会,而且与康纳的关系也更进了一步。然而,现实世界并非想像的那样的美好……

本片由在2006年凭借《红色之路》获得戛纳电影节评委会奖的英国新锐女导演安德里亚·阿诺德(Andrea Arnold)执导,是她的第二部电影长片。作为2009年戛纳电影节竞赛影片,《鱼缸》在2009年英国独立电影节获得8项提名。

◎获奖情况 (共6项)

第62届戛纳电影节 (2009)

主竞赛单元 金棕榈奖(提名)

└──安德里亚·阿诺德 (id:1000325)

主竞赛单元 评审团奖

└──安德里亚·阿诺德 (id:1000325)

第22届欧洲电影奖 (2009)

最佳影片(提名)

最佳导演(提名)

└──安德里亚·阿诺德 (id:1000325)

最佳女主角(提名)

└──凯蒂·贾维斯 (id:1009429)

第23届芝加哥影评人协会奖 (2010)

最具潜力演员(提名)

└──凯蒂·贾维斯 (id:1009429)

  1. ##### MediaInfo ######

  2. General

  3. Unique ID : 239336757819931136440982184014097080028 (0xB40E9536D2EA46201D41CAD82432DEDC)

  4. Complete name : Fish.Tank.2009.Criterion.Collection.1080p.BluRay.x265.10bit.DD+5.1.MNHD-10018@BBQDDQ.COM.mkv

  5. Format : Matroska

  6. Format version : Version 4

  7. File size : 6.77 GiB

  8. Duration : 2 h 3 min

  9. Overall bit rate : 7 879 kb/s

  10. Encoded date : UTC 2021-08-12 06:20:48

  11. Writing application : mkvmerge v45.0.0 ('Heaven in Pennies') 64-bit

  12. Writing library : libebml v1.3.10 + libmatroska v1.5.2

  13. Cover : Yes

  14. Attachments : cover


  15. Video

  16. ID : 1

  17. Format : HEVC

  18. Format/Info : High Efficiency Video Coding

  19. Format profile : Main 10@L5.1@High

  20. Codec ID : V_MPEGH/ISO/HEVC

  21. Duration : 2 h 3 min

  22. Bit rate : 6 820 kb/s

  23. Width : 1 440 pixels

  24. Height : 1 080 pixels

  25. Display aspect ratio : 4:3

  26. Frame rate mode : Constant

  27. Frame rate : 23.976 (24000/1001/53354) FPS

  28. Color space : YUV

  29. Chroma subsampling : 4:2:0

  30. Bit depth : 10 bits

  31. Bits/(Pixel*Frame) : 0.183

  32. Stream size : 5.86 GiB (87%)

  33. Writing library : x265 3.5:[Linux][GCC 9.3.0][64 bit] 10bit

  34. Encoding settings : cpuid=533541111039 / frame-threads=5 / wpp / pmode / no-pme / no-psnr / no-ssim / log-level=2 / input-csp=1 / input-res=1440x1080 / interlace=0 / total-frames=176977 / level-idc=0 / high-tier=1 / uhd-bd=0 / ref=6 / no-allow-non-conformance / no-repeat-headers / annexb / no-aud / no-hrd / info / hash=0 / no-temporal-layers / no-open-gop / min-keyint=23 / keyint=250 / gop-lookahead=0 / bframes=8 / b-adapt=2 / b-pyramid / bframe-bias=0 / rc-lookahead=80 / lookahead-slices=0 / NTMzNTQ=uuDQuD2mJt9fsCf / scenecut=40 / hist-scenecut=0 / radl=0 / no-splice / no-intra-refresh / ctu=32 / min-cu-size=8 / no-rect / no-amp / max-tu-size=32 / tu-inter-depth=4 / tu-intra-depth=4 / limit-tu=0 / rdoq-level=2 / dynamic-rd=0.00 / no-ssim-rd / signhide / no-tskip / nr-intra=0 / nr-inter=0 / no-constrained-intra / strong-intra-smoothing / max-merge=5 / limit-refs=0 / no-limit-modes / me=3 / subme=7 / merange=57 / temporal-mvp / no-frame-dup / no-hme / weightp / weightb / no-analyze-src-pics / deblock=-3:-3 / no-sao / no-sao-non-deblock / rd=4 / selective-sao=0 / no-early-skip / no-rskip / no-fast-intra / no-tskip-fast / no-cu-lossless / b-intra / no-splitrd-skip / rdpenalty=0 / psy-rd=1.00 / psy-rdoq=1.00 / no-rd-refine / no-lossless / cbqpoffs=0 / crqpoffs=0 / rc=crf / crf=20.0 / qcomp=0.60 / qpstep=4 / stats-write=0 / stats-read=0 / vbv-maxrate=160000 / vbv-bufsize=160000 / vbv-init=0.9 / min-vbv-fullness=50.0 / max-vbv-fullness=80.0 / crf-max=0.0 / crf-min=0.0 / ipratio=1.30 / pbratio=1.20 / aq-mode=2 / aq-strength=1.00 / cutree / zone-count=0 / no-strict-cbr / qg-size=32 / no-rc-grain / qpmax=69 / qpmin=0 / no-const-vbv / sar=0 / overscan=0 / videoformat=5 / range=0 / colorprim=1 / transfer=1 / colormatrix=1 / chromaloc=0 / display-window=0 / cll=0,0 / min-luma=0 / max-luma=1023 / log2-max-poc-lsb=8 / vui-timing-info / vui-hrd-info / slices=1 / no-opt-qp-pps / no-opt-ref-list-length-pps / no-multi-pass-opt-rps / scenecut-bias=0.05 / hist-threshold=0.03 / no-opt-cu-delta-qp / no-aq-motion / no-hdr10 / no-hdr10-opt / no-dhdr10-opt / no-idr-recovery-sei / analysis-reuse-level=0 / analysis-save-reuse-level=0 / analysis-load-reuse-level=0 / scale-factor=0 / refine-intra=0 / refine-inter=0 / refine-mv=1 / refine-ctu-distortion=0 / no-limit-sao / ctu-info=0 / no-lowpass-dct / refine-analysis-type=0 / copy-pic=1 / max-ausize-factor=1.0 / no-dynamic-refine / no-single-sei / no-hevc-aq / no-svt / no-field / qp-adaptation-range=1.00 / scenecut-aware-qp=0conformance-window-offsets / right=0 / bottom=0 / NTMzNTQ= / decoder-max-rate=0 / no-vbv-live-multi-pass

  35. Default : Yes

  36. Forced : No

  37. Color range : Limited

  38. Color primaries : BT.709

  39. Transfer characteristics : BT.709

  40. Matrix coefficients : BT.709


  41. Audio

  42. ID : 2

  43. Format : E-AC-3

  44. Format/Info : Enhanced AC-3

  45. Commercial name : Dolby Digital Plus

  46. Codec ID : A_EAC3

  47. Duration : 2 h 3 min

  48. Bit rate mode : Constant

  49. Bit rate : 1 023 kb/s

  50. Channel(s) : 6 channels

  51. Channel layout : L R C LFE Ls Rs

  52. Sampling rate : 48.0 kHz

  53. Frame rate : 93.750 FPS (512 SPF)

  54. Compression mode : Lossy

  55. Stream size : 900 MiB (13%)

  56. Language : English

  57. Service kind : Complete Main

  58. Default : Yes

  59. Forced : No


  60. Text #1

  61. ID : 3

  62. Format : PGS

  63. Muxing mode : zlib

  64. Codec ID : S_HDMV/PGS

  65. Codec ID/Info : Picture based subtitle format used on BDs/HD-DVDs

  66. Duration : 2 h 1 min

  67. Bit rate : 40.3 kb/s

  68. Count of elements : 2884

  69. Stream size : 35.1 MiB (1%)

  70. Language : English

  71. Default : No

  72. Forced : No


  73. Text #2

  74. ID : 4

  75. Format : PGS

  76. Muxing mode : zlib

  77. Codec ID : S_HDMV/PGS

  78. Codec ID/Info : Picture based subtitle format used on BDs/HD-DVDs

  79. Duration : 1 h 58 min

  80. Bit rate : 11.9 kb/s

  81. Count of elements : 1432

  82. Stream size : 10.1 MiB (0%)

  83. Title : Simplified Chinese

  84. Language : Chinese

  85. Default : Yes

  86. Forced : No


  87. Text #3

  88. ID : 5

  89. Format : PGS

  90. Muxing mode : zlib

  91. Codec ID : S_HDMV/PGS

  92. Codec ID/Info : Picture based subtitle format used on BDs/HD-DVDs

  93. Duration : 1 h 58 min

  94. Bit rate : 12.2 kb/s

  95. Count of elements : 1432

  96. Stream size : 10.4 MiB (0%)

  97. Title : Traditional Chinese

  98. Language : Chinese

  99. Default : No

  100. Forced : No


  101. Menu

  102. 00:00:00.000 : en:Messages for Keeley

  103. 00:07:22.108 : en:Personal space

  104. 00:10:30.546 : en:The horse

  105. 00:14:05.469 : en:Connor

  106. 00:20:13.587 : en:Joanne's party

  107. 00:30:06.971 : en:Day trip

  108. 00:42:41.475 : en:Options for Mia

  109. 00:50:45.125 : en:Demo tape

  110. 00:56:57.580 : en:A new friend

  111. 01:04:25.611 : en:An audition

  112. 01:10:34.146 : en:Dry run

  113. 01:22:22.729 : en:"Connor's gone"

  114. 01:30:36.764 : en:Married with child

  115. 01:38:07.715 : en:Keira

  116. 01:47:19.057 : en:Tryouts

  117. 01:53:59.040 : en:On to Wales

  118. 01:59:30.830 : en:End credits

  119. 02:03:01.165 : en:Color bars



文件下载


除非特别注明,本文『鱼缸[简繁字幕].Fish.Tank.2009.Criterion.Collection.1080p.BluRay.x265.10bit.DD/5.1.MNHD 6.77GB』来源于互联网机器人自动抓取,非本站原创。 浮游电影网不对本文拥有版权,如有侵犯,请联系邮箱:fuyouu#yandex.com[#换成@]投诉。我们会在15个工作日内删除。 但烦请转载时请标明出处:“本文转载于『浮游电影网』,原文地址:https://www.fuyouu.com/13981.html

评论吧骚年!

发表你的见解   

昵称*

E-mail*(建议输入,以便收到博主回复的提示邮件)

验证码*

您可以使用eMule或eMule Mod(Windows)、aMule(Win、Linux、Mac)等软件下载eD2k链接。。
eMule收藏集(.emulecollection)文件是您选中的所有链接的列表文件。eMule可以直接下载它们。
按住SHIFT键选择可以选中多个选择框。
可用文件名和大小选择器来选择文件。
文件名选择器帮您根据文件名称或后缀来选择文件。不分大小写。
符号使用:
和:空格( )、+
不包含:-
或:|
转义:一对英文引号("");
匹配开头:^
匹配结尾:$
例如:
选中所有名称中包含有“eMule”或“0.49c”字眼,但不包含有“exe”字眼的:emule|0.49c -exe
选中所有名称的开头是“eMule”,结尾是“0.49c”的:^emule 0.49c$
选中所有名称中带有“eMule 0.49c”的(必须是“eMule 0.49c”,中间没有别的字符,不能是“eMule fake 0.49c”),需要转义:"emule 0.49c"
大小选择器帮您根据文件大小选择文件。