当前位置: 首页 >> 海外电影 >> 穆谢特[简繁字幕].Mouchette.1967.Criterion.Collection.1080p.BluRay.x265.10bit.FLAC.MNHD 5.10GB >> 正文

穆谢特[简繁字幕].Mouchette.1967.Criterion.Collection.1080p.BluRay.x265.10bit.FLAC.MNHD 5.10GB

2021年08月28日 11:25:47     电影发布:来源于网络     电影分类:海外电影     评论(0)    

穆谢特[简繁字幕].Mouchette.1967.Criterion.Collection.1080p.BluRay.x265.10bit.FLAC.MNHD 5.10GB 剧情片 海外电影  第1张

◎译 名 穆谢特 / 少女莫夏特 / 少女穆夏特 / 少女穆谢特 / 莫赫特 / 慕雪特 / 穆赛特

◎片 名 Mouchette

◎年 代 1967

◎产 地 法国

◎类 别 剧情

◎语 言 法语

◎上映日期 1967-03-28(法国)

◎IMDb链接 https://www.imdb.com/title/tt0061996/

◎豆瓣评分 8.5/10 (5995人评价)

◎豆瓣链接 https://movie.douban.com/subject/1302413/

◎片 长 81分钟

◎导 演 罗伯特·布列松 Robert Bresson (id:1047977)

◎编 剧 乔治·贝尔纳诺斯 Georges Bernanos (id:1034131)

罗伯特·布列松 Robert Bresson (id:1047977)

◎演 员 娜丁·诺蒂尔 Nadine Nortier (id:1335967)

Jean-Claude Guilbert Jean-Claude Guilbert (id:1342732)

Marie Cardinal Marie Cardinal (id:1071594)

保罗·赫伯特 Paul Hébert (id:1113531)

让·维姆内 Jean Vimenet (id:1368989)

Marie Susini Marie Susini (id:1156396)

Anatole Dauman Anatole Dauman (id:1008464)

Jean Wiener Jean Wiener (id:1033808)

吉兰·克洛凯 Ghislain Cloquet (id:1001487)

雷蒙德·拉米 Raymond Lamy (id:1027098)

皮埃尔·古弗罗伊 Pierre Guffroy (id:1048695)

◎标 签 法国 / 布列松 / 罗伯特·布列松 / 法国电影 / RobertBresson / 1967 / 1960s / Robert_Bresson

◎简 介

14岁的少女穆谢特(Nadine Nortier 饰)生活在法国的乡间,她的童年暗淡无味,充满艰辛。父亲(Paul Hebert 饰)是一个贩卖私酒的贪杯酒鬼,对家务不管不顾;母亲(Marie Cardinal 饰)病入膏肓,终日躺在床上等待死神的莅临;尚在襁褓中的弟弟整天哭闹不止,令人心烦气躁。家庭的磨难让这个小女孩过早成熟,她打工赚来的钱被父亲抢走,还经常遭到殴打。她在学校受到同学的嘲笑和欺负,倔强的穆谢特只能通过在放学时向同学丢土块宣泄心中的不满。原本应该充满快乐的花季童年,就这样过早地凋谢了……

本片荣获1967年戛纳电影节OCIC奖、1968年法国电影评论协会奖最佳影片奖、1969年意大利电影新闻记者协会银兔奖最佳外语片导演奖、1967年威尼斯电影节Pasinetti最佳影片奖。

◎获奖情况 (共2项)

第20届戛纳电影节 (1967)

主竞赛单元 金棕榈奖(提名)

└──罗伯特·布列松 (id:1047977)

OCIC Award

└──罗伯特·布列松 (id:1047977)

  1. ##### MediaInfo ######

  2. General

  3. Unique ID : 97022789284017037972248537063710537452 (0x48FDE8D61B448AF8957F051991CC36EC)

  4. Complete name : Mouchette.1967.Criterion.Collection.1080p.BluRay.x265.10bit.FLAC.MNHD-10018@BBQDDQ.COM.mkv

  5. Format : Matroska

  6. Format version : Version 4

  7. File size : 5.10 GiB

  8. Duration : 1 h 21 min

  9. Overall bit rate mode : Variable

  10. Overall bit rate : 8 920 kb/s

  11. Encoded date : UTC 2021-08-10 05:54:22

  12. Writing application : mkvmerge v45.0.0 ('Heaven in Pennies') 64-bit

  13. Writing library : libebml v1.3.10 + libmatroska v1.5.2

  14. Cover : Yes

  15. Attachments : cover


  16. Video

  17. ID : 1

  18. Format : HEVC

  19. Format/Info : High Efficiency Video Coding

  20. Format profile : Main 10@L5.1@High

  21. Codec ID : V_MPEGH/ISO/HEVC

  22. Duration : 1 h 21 min

  23. Bit rate : 8 528 kb/s

  24. Width : 1 792 pixels

  25. Height : 1 080 pixels

  26. Display aspect ratio : 5:3

  27. Frame rate mode : Constant

  28. Frame rate : 23.976 (24000/1001/53354) FPS

  29. Color space : YUV

  30. Chroma subsampling : 4:2:0

  31. Bit depth : 10 bits

  32. Bits/(Pixel*Frame) : 0.184

  33. Stream size : 4.87 GiB (96%)

  34. Writing library : x265 3.5:[Linux][GCC 9.3.0][64 bit] 10bit

  35. Encoding settings : cpuid=533541111039 / frame-threads=5 / wpp / pmode / no-pme / no-psnr / no-ssim / log-level=2 / input-csp=1 / input-res=1792x1080 / interlace=0 / total-frames=117670 / level-idc=0 / high-tier=1 / uhd-bd=0 / ref=6 / no-allow-non-conformance / no-repeat-headers / annexb / no-aud / no-hrd / info / hash=0 / no-temporal-layers / no-open-gop / min-keyint=23 / keyint=250 / gop-lookahead=0 / bframes=8 / b-adapt=2 / b-pyramid / bframe-bias=0 / rc-lookahead=80 / lookahead-slices=0 / NTMzNTQ=uuDQuD2mJt9fsCf / scenecut=40 / hist-scenecut=0 / radl=0 / no-splice / no-intra-refresh / ctu=32 / min-cu-size=8 / no-rect / no-amp / max-tu-size=32 / tu-inter-depth=4 / tu-intra-depth=4 / limit-tu=0 / rdoq-level=2 / dynamic-rd=0.00 / no-ssim-rd / signhide / no-tskip / nr-intra=0 / nr-inter=0 / no-constrained-intra / strong-intra-smoothing / max-merge=5 / limit-refs=0 / no-limit-modes / me=3 / subme=7 / merange=57 / temporal-mvp / no-frame-dup / no-hme / weightp / weightb / no-analyze-src-pics / deblock=-3:-3 / no-sao / no-sao-non-deblock / rd=4 / selective-sao=0 / no-early-skip / no-rskip / no-fast-intra / no-tskip-fast / no-cu-lossless / b-intra / no-splitrd-skip / rdpenalty=0 / psy-rd=1.00 / psy-rdoq=1.00 / no-rd-refine / no-lossless / cbqpoffs=0 / crqpoffs=0 / rc=crf / crf=23.0 / qcomp=0.60 / qpstep=4 / stats-write=0 / stats-read=0 / vbv-maxrate=160000 / vbv-bufsize=160000 / vbv-init=0.9 / min-vbv-fullness=50.0 / max-vbv-fullness=80.0 / crf-max=0.0 / crf-min=0.0 / ipratio=1.30 / pbratio=1.20 / aq-mode=2 / aq-strength=1.00 / cutree / zone-count=0 / no-strict-cbr / qg-size=32 / no-rc-grain / qpmax=69 / qpmin=0 / no-const-vbv / sar=0 / overscan=0 / videoformat=5 / range=0 / colorprim=1 / transfer=1 / colormatrix=1 / chromaloc=0 / display-window=0 / cll=0,0 / min-luma=0 / max-luma=1023 / log2-max-poc-lsb=8 / vui-timing-info / vui-hrd-info / slices=1 / no-opt-qp-pps / no-opt-ref-list-length-pps / no-multi-pass-opt-rps / scenecut-bias=0.05 / hist-threshold=0.03 / no-opt-cu-delta-qp / no-aq-motion / no-hdr10 / no-hdr10-opt / no-dhdr10-opt / no-idr-recovery-sei / analysis-reuse-level=0 / analysis-save-reuse-level=0 / analysis-load-reuse-level=0 / scale-factor=0 / refine-intra=0 / refine-inter=0 / refine-mv=1 / refine-ctu-distortion=0 / no-limit-sao / ctu-info=0 / no-lowpass-dct / refine-analysis-type=0 / copy-pic=1 / max-ausize-factor=1.0 / no-dynamic-refine / no-single-sei / no-hevc-aq / no-svt / no-field / qp-adaptation-range=1.00 / scenecut-aware-qp=0conformance-window-offsets / right=0 / bottom=0 / NTMzNTQ= / decoder-max-rate=0 / no-vbv-live-multi-pass

  36. Default : Yes

  37. Forced : No

  38. Color range : Limited

  39. Color primaries : BT.709

  40. Transfer characteristics : BT.709

  41. Matrix coefficients : BT.709


  42. Audio #1

  43. ID : 2

  44. Format : FLAC

  45. Format/Info : Free Lossless Audio Codec

  46. Codec ID : A_FLAC

  47. Duration : 1 h 21 min

  48. Bit rate mode : Variable

  49. Bit rate : 186 kb/s

  50. Channel(s) : 1 channel

  51. Channel layout : C

  52. Sampling rate : 48.0 kHz

  53. Frame rate : 10.417 FPS (4608 SPF)

  54. Bit depth : 16 bits

  55. Compression mode : Lossless

  56. Stream size : 109 MiB (2%)

  57. Writing library : Lavf58.29.100

  58. Language : French

  59. Default : Yes

  60. Forced : No


  61. Audio #2

  62. ID : 3

  63. Format : AC-3

  64. Format/Info : Audio Coding 3

  65. Commercial name : Dolby Digital

  66. Codec ID : A_AC3

  67. Duration : 1 h 21 min

  68. Bit rate mode : Constant

  69. Bit rate : 192 kb/s

  70. Channel(s) : 1 channel

  71. Channel layout : C

  72. Sampling rate : 48.0 kHz

  73. Frame rate : 31.250 FPS (1536 SPF)

  74. Compression mode : Lossy

  75. Stream size : 112 MiB (2%)

  76. Language : English

  77. Service kind : Complete Main

  78. Default : No

  79. Forced : No


  80. Text #1

  81. ID : 4

  82. Format : PGS

  83. Muxing mode : zlib

  84. Codec ID : S_HDMV/PGS

  85. Codec ID/Info : Picture based subtitle format used on BDs/HD-DVDs

  86. Duration : 1 h 15 min

  87. Bit rate : 12.8 kb/s

  88. Count of elements : 556

  89. Stream size : 6.85 MiB (0%)

  90. Language : English

  91. Default : No

  92. Forced : No


  93. Text #2

  94. ID : 5

  95. Format : PGS

  96. Muxing mode : zlib

  97. Codec ID : S_HDMV/PGS

  98. Codec ID/Info : Picture based subtitle format used on BDs/HD-DVDs

  99. Duration : 1 h 14 min

  100. Bit rate : 9 454 b/s

  101. Count of elements : 655

  102. Stream size : 5.06 MiB (0%)

  103. Title : Simplified Chinese

  104. Language : Chinese

  105. Default : Yes

  106. Forced : No


  107. Text #3

  108. ID : 6

  109. Format : PGS

  110. Muxing mode : zlib

  111. Codec ID : S_HDMV/PGS

  112. Codec ID/Info : Picture based subtitle format used on BDs/HD-DVDs

  113. Duration : 1 h 14 min

  114. Bit rate : 9 670 b/s

  115. Count of elements : 655

  116. Stream size : 5.17 MiB (0%)

  117. Title : Traditional Chinese

  118. Language : Chinese

  119. Default : No

  120. Forced : No


  121. Menu

  122. 00:00:00.000 : en:Logos

  123. 00:02:26.855 : en:Poacher and gamekeeper

  124. 00:06:50.118 : en:Suspicious affairs

  125. 00:12:18.863 : en:Lessons

  126. 00:16:23.357 : en:Sunday morning

  127. 00:19:36.550 : en:At the fair

  128. 00:24:43.398 : en:Foolish men

  129. 00:27:30.815 : en:A storm approaches

  130. 00:31:02.110 : en:Tussle in the woods

  131. 00:35:01.224 : en:Captured

  132. 00:42:23.707 : en:Le petit mal

  133. 00:53:50.644 : en:One night's sorrow

  134. 01:05:03.941 : en:Accusations

  135. 01:12:42.941 : en:Funeral gown

  136. 01:15:46.542 : en:Rabbit hunt

  137. 01:18:10.102 : en:Last attempt

  138. 01:21:47.569 : en:Color bars



文件下载


除非特别注明,本文『穆谢特[简繁字幕].Mouchette.1967.Criterion.Collection.1080p.BluRay.x265.10bit.FLAC.MNHD 5.10GB』来源于互联网机器人自动抓取,非本站原创。 浮游电影网不对本文拥有版权,如有侵犯,请联系邮箱:fuyouu#yandex.com[#换成@]投诉。我们会在15个工作日内删除。 但烦请转载时请标明出处:“本文转载于『浮游电影网』,原文地址:https://www.fuyouu.com/13979.html

评论吧骚年!

发表你的见解   

昵称*

E-mail*(建议输入,以便收到博主回复的提示邮件)

验证码*

您可以使用eMule或eMule Mod(Windows)、aMule(Win、Linux、Mac)等软件下载eD2k链接。。
eMule收藏集(.emulecollection)文件是您选中的所有链接的列表文件。eMule可以直接下载它们。
按住SHIFT键选择可以选中多个选择框。
可用文件名和大小选择器来选择文件。
文件名选择器帮您根据文件名称或后缀来选择文件。不分大小写。
符号使用:
和:空格( )、+
不包含:-
或:|
转义:一对英文引号("");
匹配开头:^
匹配结尾:$
例如:
选中所有名称中包含有“eMule”或“0.49c”字眼,但不包含有“exe”字眼的:emule|0.49c -exe
选中所有名称的开头是“eMule”,结尾是“0.49c”的:^emule 0.49c$
选中所有名称中带有“eMule 0.49c”的(必须是“eMule 0.49c”,中间没有别的字符,不能是“eMule fake 0.49c”),需要转义:"emule 0.49c"
大小选择器帮您根据文件大小选择文件。