当前位置: 首页 >> 海外电影 >> 小丑之夜[简繁字幕].Sawdust.and.Tinsel.1953.Criterion.Collection.1080p.BluRay.x265.10bit.FLAC.MNHD 6.10GB >> 正文

小丑之夜[简繁字幕].Sawdust.and.Tinsel.1953.Criterion.Collection.1080p.BluRay.x265.10bit.FLAC.MNHD 6.10GB

2021年08月28日 11:24:49     电影发布:来源于网络     电影分类:海外电影     评论(0)    

小丑之夜[简繁字幕].Sawdust.and.Tinsel.1953.Criterion.Collection.1080p.BluRay.x265.10bit.FLAC.MNHD 6.10GB 剧情片 海外电影  第1张

◎译 名 小丑之夜 / 小丑的夜晚 / 小丑时刻 / 裸夜 / The Naked Night / Sunset of a Clown / Sawdust and Tinsel

◎片 名 Gycklarnas afton

◎年 代 1953

◎产 地 瑞典

◎类 别 剧情

◎语 言 瑞典语

◎上映日期 1953-09-14

◎IMDb链接 https://www.imdb.com/title/tt0045848/

◎豆瓣评分 8.0/10 (1909人评价)

◎豆瓣链接 https://movie.douban.com/subject/1300957/

◎片 长 93 分钟

◎导 演 英格玛·伯格曼 Ingmar Bergman (id:1054526)

◎编 剧 英格玛·伯格曼 Ingmar Bergman (id:1054526)

◎演 员 奥克·格伦贝里 ?ke Gr?nberg (id:1098257)

哈里特·安德森 Harriet Andersson (id:1007149)

哈塞·埃克曼 Hasse Ekman (id:1051078)

安德斯·埃克 Anders Ek (id:1082911)

古德龙·布罗斯特 Gudrun Brost (id:1076214)

安尼卡·特雷托 Annika Tretow (id:1156369)

埃里克·斯特兰德马克 Erik Strandmark (id:1154061)

古纳尔·布约恩施特兰德 Gunnar Bj?rnstrand (id:1041602)

库尔特·勒夫格伦 Curt L?wgren (id:1121526)

基基 Kiki (id:1027662)

Eric Gustafson Eric Gustafson (id:1101839)

耶兰·隆德奎斯特 G?ran Lundquist (id:1121783)

Mats H?dell Mats H?dell (id:1108732)

Gunborg Larsson Gunborg Larsson (id:1109205)

Hanny Schedin Hanny Schedin (id:1143664)

Olav Riégo Olav Riégo (id:1145275)

Sigvard T?rnqvist Sigvard T?rnqvist (id:1150737)

John Starck John Starck (id:1153833)

Conrad Gyllenhammar Conrad Gyllenhammar (id:1097360)

Erna Groth Erna Groth (id:1096677)

Vanje Hedberg Vanje Hedberg (id:1092074)

Lissi Alandh Lissi Alandh (id:1059623)

John W. Bj?rling John W. Bj?rling (id:1061265)

阿格达·海林 Agda Helin (id:1063205)

Julie Bernby Julie Bernby (id:1064399)

内米·布里泽 Naemi Briese (id:1077613)

奥克·弗里德尔 ?ke Fridell (id:1088876)

Karl-Axel Forssberg Karl-Axel Forssberg (id:1090185)

Majken Torkeli Majken Torkeli (id:1160176)

Rune Waldekranz Rune Waldekranz (id:1052639)

Karl-Birger Blomdahl Karl-Birger Blomdahl (id:1062135)

斯文·尼科维斯特 Sven Nykvist (id:1037076)

Hilding Bladh Hilding Bladh (id:1017324)

Bibi Lindstr?m Bibi Lindstr?m (id:1013316)

Mago Mago (id:1003898)

Nils Nittel Nils Nittel (id:1132664)

◎标 签 英格玛·伯格曼 / 瑞典 / IngmarBergman / 1950s / 1953 / 瑞典电影 / 伯格曼 / Ingmar_Bergman

◎简 介

艾伯特(?ke Gr?nberg 饰)的全部身家性命都赌在了自己苦心经营的马戏团上面了,尽管生意日益惨淡,但他并没有产生放弃的念头,他决定用一场盛大的演出来振奋团里的士气。带着自己的情人安妮(哈里特·安德森 Harriet Andersson 饰),艾伯特来到了一个名叫舒伯格(甘纳尔·布耶恩施特兰德 Gunnar Bj?rnstrand 饰)的男人处,希望能够向他借一些演出用的服装。

艾伯特去看望分别已久的妻子阿格达(Annika Tretow 饰)和孩子们,并表示了想要留在家中安度晚年的愿望,没想到遭到了拒绝,不久之后,艾伯特又发现安妮和同事弗朗斯(哈塞·埃克曼 Hasse Ekman 饰)之间的私情。好在马戏团的演出获得了成功,生活即便残酷,但日子还是一天天的慢慢流走了。

  1. ##### MediaInfo ######

  2. General

  3. Unique ID : 274733405712622980571779257726617238676 (0xCEAFBAB1FFA2F323D2FE1810560BBC94)

  4. Complete name : Sawdust.and.Tinsel.1953.Criterion.Collection.1080p.BluRay.x265.10bit.FLAC.MNHD-10018@BBQDDQ.COM.mkv

  5. Format : Matroska

  6. Format version : Version 4

  7. File size : 6.10 GiB

  8. Duration : 1 h 33 min

  9. Overall bit rate mode : Variable

  10. Overall bit rate : 9 366 kb/s

  11. Encoded date : UTC 2021-08-09 12:42:01

  12. Writing application : mkvmerge v45.0.0 ('Heaven in Pennies') 64-bit

  13. Writing library : libebml v1.3.10 + libmatroska v1.5.2

  14. Cover : Yes

  15. Attachments : cover


  16. Video

  17. ID : 1

  18. Format : HEVC

  19. Format/Info : High Efficiency Video Coding

  20. Format profile : Main 10@L5.1@High

  21. Codec ID : V_MPEGH/ISO/HEVC

  22. Duration : 1 h 33 min

  23. Bit rate : 8 914 kb/s

  24. Width : 1 480 pixels

  25. Height : 1 080 pixels

  26. Display aspect ratio : 1.370

  27. Frame rate mode : Constant

  28. Frame rate : 23.976 (24000/1001/53354) FPS

  29. Color space : YUV

  30. Chroma subsampling : 4:2:0

  31. Bit depth : 10 bits

  32. Bits/(Pixel*Frame) : 0.233

  33. Stream size : 5.80 GiB (95%)

  34. Writing library : x265 3.5:[Linux][GCC 9.3.0][64 bit] 10bit

  35. Encoding settings : cpuid=533541111039 / frame-threads=5 / wpp / pmode / no-pme / no-psnr / no-ssim / log-level=2 / input-csp=1 / input-res=1480x1080 / interlace=0 / total-frames=134050 / level-idc=0 / high-tier=1 / uhd-bd=0 / ref=6 / no-allow-non-conformance / no-repeat-headers / annexb / no-aud / no-hrd / info / hash=0 / no-temporal-layers / no-open-gop / min-keyint=23 / keyint=250 / gop-lookahead=0 / bframes=8 / b-adapt=2 / b-pyramid / bframe-bias=0 / rc-lookahead=80 / lookahead-slices=0 / NTMzNTQ=uuDQuD2mJt9fsCf / scenecut=40 / hist-scenecut=0 / radl=0 / no-splice / no-intra-refresh / ctu=32 / min-cu-size=8 / no-rect / no-amp / max-tu-size=32 / tu-inter-depth=4 / tu-intra-depth=4 / limit-tu=0 / rdoq-level=2 / dynamic-rd=0.00 / no-ssim-rd / signhide / no-tskip / nr-intra=0 / nr-inter=0 / no-constrained-intra / strong-intra-smoothing / max-merge=5 / limit-refs=0 / no-limit-modes / me=3 / subme=7 / merange=57 / temporal-mvp / no-frame-dup / no-hme / weightp / weightb / no-analyze-src-pics / deblock=-3:-3 / no-sao / no-sao-non-deblock / rd=4 / selective-sao=0 / no-early-skip / no-rskip / no-fast-intra / no-tskip-fast / no-cu-lossless / b-intra / no-splitrd-skip / rdpenalty=0 / psy-rd=1.00 / psy-rdoq=1.00 / no-rd-refine / no-lossless / cbqpoffs=0 / crqpoffs=0 / rc=crf / crf=24.0 / qcomp=0.60 / qpstep=4 / stats-write=0 / stats-read=0 / vbv-maxrate=160000 / vbv-bufsize=160000 / vbv-init=0.9 / min-vbv-fullness=50.0 / max-vbv-fullness=80.0 / crf-max=0.0 / crf-min=0.0 / ipratio=1.30 / pbratio=1.20 / aq-mode=2 / aq-strength=1.00 / cutree / zone-count=0 / no-strict-cbr / qg-size=32 / no-rc-grain / qpmax=69 / qpmin=0 / no-const-vbv / sar=0 / overscan=0 / videoformat=5 / range=0 / colorprim=1 / transfer=1 / colormatrix=1 / chromaloc=0 / display-window=0 / cll=0,0 / min-luma=0 / max-luma=1023 / log2-max-poc-lsb=8 / vui-timing-info / vui-hrd-info / slices=1 / no-opt-qp-pps / no-opt-ref-list-length-pps / no-multi-pass-opt-rps / scenecut-bias=0.05 / hist-threshold=0.03 / no-opt-cu-delta-qp / no-aq-motion / no-hdr10 / no-hdr10-opt / no-dhdr10-opt / no-idr-recovery-sei / analysis-reuse-level=0 / analysis-save-reuse-level=0 / analysis-load-reuse-level=0 / scale-factor=0 / refine-intra=0 / refine-inter=0 / refine-mv=1 / refine-ctu-distortion=0 / no-limit-sao / ctu-info=0 / no-lowpass-dct / refine-analysis-type=0 / copy-pic=1 / max-ausize-factor=1.0 / no-dynamic-refine / no-single-sei / no-hevc-aq / no-svt / no-field / qp-adaptation-range=1.00 / scenecut-aware-qp=0conformance-window-offsets / right=0 / bottom=0 / NTMzNTQ= / decoder-max-rate=0 / no-vbv-live-multi-pass

  36. Default : Yes

  37. Forced : No

  38. Color range : Limited

  39. Color primaries : BT.709

  40. Transfer characteristics : BT.709

  41. Matrix coefficients : BT.709


  42. Audio #1

  43. ID : 2

  44. Format : FLAC

  45. Format/Info : Free Lossless Audio Codec

  46. Codec ID : A_FLAC

  47. Duration : 1 h 33 min

  48. Bit rate mode : Variable

  49. Bit rate : 230 kb/s

  50. Channel(s) : 1 channel

  51. Channel layout : C

  52. Sampling rate : 48.0 kHz

  53. Frame rate : 10.417 FPS (4608 SPF)

  54. Bit depth : 16 bits

  55. Compression mode : Lossless

  56. Stream size : 153 MiB (2%)

  57. Writing library : Lavf58.29.100

  58. Language : Swedish

  59. Default : Yes

  60. Forced : No


  61. Audio #2

  62. ID : 3

  63. Format : AC-3

  64. Format/Info : Audio Coding 3

  65. Commercial name : Dolby Digital

  66. Codec ID : A_AC3

  67. Duration : 1 h 33 min

  68. Bit rate mode : Constant

  69. Bit rate : 192 kb/s

  70. Channel(s) : 1 channel

  71. Channel layout : C

  72. Sampling rate : 48.0 kHz

  73. Frame rate : 31.250 FPS (1536 SPF)

  74. Compression mode : Lossy

  75. Stream size : 128 MiB (2%)

  76. Language : English

  77. Service kind : Complete Main

  78. Default : No

  79. Forced : No


  80. Text #1

  81. ID : 4

  82. Format : PGS

  83. Muxing mode : zlib

  84. Codec ID : S_HDMV/PGS

  85. Codec ID/Info : Picture based subtitle format used on BDs/HD-DVDs

  86. Duration : 1 h 32 min

  87. Bit rate : 30.8 kb/s

  88. Count of elements : 1532

  89. Stream size : 20.4 MiB (0%)

  90. Language : English

  91. Default : No

  92. Forced : No


  93. Text #2

  94. ID : 5

  95. Format : PGS

  96. Muxing mode : zlib

  97. Codec ID : S_HDMV/PGS

  98. Codec ID/Info : Picture based subtitle format used on BDs/HD-DVDs

  99. Duration : 1 h 31 min

  100. Bit rate : 19.4 kb/s

  101. Count of elements : 1530

  102. Stream size : 12.7 MiB (0%)

  103. Title : Simplified Chinese

  104. Language : Chinese

  105. Default : Yes

  106. Forced : No


  107. Text #3

  108. ID : 6

  109. Format : PGS

  110. Muxing mode : zlib

  111. Codec ID : S_HDMV/PGS

  112. Codec ID/Info : Picture based subtitle format used on BDs/HD-DVDs

  113. Duration : 1 h 31 min

  114. Bit rate : 19.8 kb/s

  115. Count of elements : 1530

  116. Stream size : 13.0 MiB (0%)

  117. Title : Traditional Chinese

  118. Language : Chinese

  119. Default : No

  120. Forced : No


  121. Menu

  122. 00:00:00.000 : en:Traveling circus

  123. 00:07:51.137 : en:Frost and Alma

  124. 00:12:11.063 : en:Humiliation

  125. 00:16:33.117 : en:Rain in a new town

  126. 00:20:06.955 : en:Unrest and a brainstorm

  127. 00:24:16.663 : en:The circus visits the theater

  128. 00:30:29.577 : en:Frans is smitten

  129. 00:34:43.539 : en:Cirkus Alberti causes a stir

  130. 00:38:03.781 : en:Anne is jealous

  131. 00:40:46.819 : en:Reunion

  132. 00:47:14.289 : en:Rehearsal

  133. 00:51:04.770 : en:Power and seduction

  134. 00:56:55.078 : en:A proposal rejected

  135. 01:00:11.524 : en:Anne's prize

  136. 01:02:00.800 : en:Confessions

  137. 01:07:12.737 : en:Albert feels sorry

  138. 01:12:05.029 : en:Albert and Frost

  139. 01:15:21.391 : en:Clowns and actors

  140. 01:18:27.160 : en:A duel in the ring

  141. 01:24:16.468 : en:Albert responds

  142. 01:30:19.122 : en:The caravan moves on

  143. 01:33:10.751 : en:Color bars




文件下载


除非特别注明,本文『小丑之夜[简繁字幕].Sawdust.and.Tinsel.1953.Criterion.Collection.1080p.BluRay.x265.10bit.FLAC.MNHD 6.10GB』来源于互联网机器人自动抓取,非本站原创。 浮游电影网不对本文拥有版权,如有侵犯,请联系邮箱:fuyouu#yandex.com[#换成@]投诉。我们会在15个工作日内删除。 但烦请转载时请标明出处:“本文转载于『浮游电影网』,原文地址:https://www.fuyouu.com/13978.html

评论吧骚年!

发表你的见解   

昵称*

E-mail*(建议输入,以便收到博主回复的提示邮件)

验证码*

您可以使用eMule或eMule Mod(Windows)、aMule(Win、Linux、Mac)等软件下载eD2k链接。。
eMule收藏集(.emulecollection)文件是您选中的所有链接的列表文件。eMule可以直接下载它们。
按住SHIFT键选择可以选中多个选择框。
可用文件名和大小选择器来选择文件。
文件名选择器帮您根据文件名称或后缀来选择文件。不分大小写。
符号使用:
和:空格( )、+
不包含:-
或:|
转义:一对英文引号("");
匹配开头:^
匹配结尾:$
例如:
选中所有名称中包含有“eMule”或“0.49c”字眼,但不包含有“exe”字眼的:emule|0.49c -exe
选中所有名称的开头是“eMule”,结尾是“0.49c”的:^emule 0.49c$
选中所有名称中带有“eMule 0.49c”的(必须是“eMule 0.49c”,中间没有别的字符,不能是“eMule fake 0.49c”),需要转义:"emule 0.49c"
大小选择器帮您根据文件大小选择文件。