当前位置: 首页 >> 国产电影 >> 寻龙护宝[国语配音/中文字幕].Xun.Long.Hu.Bao.2021.1080p.WEB-DL.H264.AAC 12.44GB >> 正文

寻龙护宝[国语配音/中文字幕].Xun.Long.Hu.Bao.2021.1080p.WEB-DL.H264.AAC 12.44GB

2021年08月27日 20:48:04     电影发布:来源于网络     电影分类:国产电影     评论(0)    

寻龙护宝[国语配音/中文字幕].Xun.Long.Hu.Bao.2021.1080p.WEB DL.H264.AAC 12.44GB 冒险片 国产电影  第1张

◎译 名 寻龙护宝

◎年 代 2021

◎产 地 中国大陆

◎类 别 冒险

◎语 言 汉语普通话

◎上映日期 2021-08-26(中国大陆)

◎IMDb链接 https://www.imdb.com/title//

◎豆瓣链接 https://movie.douban.com/subject/35574421/

◎导 演 房映华 Yinghua Fang (id:1403475)

◎演 员 崔冬辰 Dongchen Cui (id:1436363)

金宁 Ning Jin (id:1410467)

◎简 介

许教授和刘彤奉命保护古墓,在监视盗墓贼卢道成的过程中,意外与卢道成的儿媳妇苏月红结识。于此同时两人发现了日本盗墓贼的踪迹。面对两伙势力,刘彤和许教授在苏月红的帮助下艰难的开展古墓保护工作。

  1. ##### MediaInfo ######

  2. General

  3. Complete name : 寻龙护宝.Xun.Long.Hu.Bao.2021.1080p.WEB-DL.H264.AAC-10003@BBQDDQ.COM.mp4

  4. Format : MPEG-4

  5. Format profile : Base Media / Version 2

  6. Codec ID : mp42 (mp42/mp41)

  7. File size : 12.4 GiB

  8. Duration : 1 h 15 min

  9. Overall bit rate mode : Variable

  10. Overall bit rate : 23.7 Mb/s

  11. Encoded date : UTC 2021-08-08 08:40:00

  12. Tagged date : UTC 2021-08-08 08:44:02

  13. TIM : 00:00:00:00

  14. TSC : 24

  15. TSZ : 1


  16. Video

  17. ID : 1

  18. Format : AVC

  19. Format/Info : Advanced Video Codec

  20. Format profile : Main@L4.1

  21. Format settings : CABAC / 1 Ref Frames

  22. Format settings, CABAC : Yes

  23. Format settings, Reference frames : 1 frame

  24. Format settings, GOP : M=1, N=30

  25. Codec ID : avc1

  26. Codec ID/Info : Advanced Video Coding

  27. Duration : 1 h 15 min

  28. Bit rate : 23.0 Mb/s

  29. Width : 1 920 pixels

  30. Height : 818 pixels

  31. Display aspect ratio : 2.35:1

  32. Frame rate mode : Constant

  33. Frame rate : 24.000 FPS

  34. Color space : YUV

  35. Chroma subsampling : 4:2:0

  36. Bit depth : 8 bits

  37. Scan type : Progressive

  38. Bits/(Pixel*Frame) : 0.611

  39. Stream size : 12.1 GiB (97%)

  40. Language : English

  41. Encoded date : UTC 2021-08-08 08:40:00

  42. Tagged date : UTC 2021-08-08 08:40:00

  43. Codec configuration box : avcC


  44. Audio

  45. ID : 2

  46. Format : AAC LC

  47. Format/Info : Advanced Audio Codec Low Complexity

  48. Codec ID : mp4a-40-2

  49. Duration : 1 h 15 min

  50. Source duration : 1 h 15 min

  51. Bit rate mode : Variable

  52. Bit rate : 317 kb/s

  53. Maximum bit rate : 410 kb/s

  54. Channel(s) : 2 channels

  55. Channel layout : L R

  56. Sampling rate : 48.0 kHz

  57. Frame rate : 46.875 FPS (1024 SPF)

  58. Compression mode : Lossy

  59. Stream size : 171 MiB (1%)

  60. Source stream size : 171 MiB (1%)

  61. Language : English

  62. Encoded date : UTC 2021-08-08 08:40:00

  63. Tagged date : UTC 2021-08-08 08:40:00



文件下载


除非特别注明,本文『寻龙护宝[国语配音/中文字幕].Xun.Long.Hu.Bao.2021.1080p.WEB-DL.H264.AAC 12.44GB』来源于互联网机器人自动抓取,非本站原创。 浮游电影网不对本文拥有版权,如有侵犯,请联系邮箱:fuyouu#yandex.com[#换成@]投诉。我们会在15个工作日内删除。 但烦请转载时请标明出处:“本文转载于『浮游电影网』,原文地址:https://www.fuyouu.com/13954.html

评论吧骚年!

发表你的见解   

昵称*

E-mail*(建议输入,以便收到博主回复的提示邮件)

验证码*

您可以使用eMule或eMule Mod(Windows)、aMule(Win、Linux、Mac)等软件下载eD2k链接。。
eMule收藏集(.emulecollection)文件是您选中的所有链接的列表文件。eMule可以直接下载它们。
按住SHIFT键选择可以选中多个选择框。
可用文件名和大小选择器来选择文件。
文件名选择器帮您根据文件名称或后缀来选择文件。不分大小写。
符号使用:
和:空格( )、+
不包含:-
或:|
转义:一对英文引号("");
匹配开头:^
匹配结尾:$
例如:
选中所有名称中包含有“eMule”或“0.49c”字眼,但不包含有“exe”字眼的:emule|0.49c -exe
选中所有名称的开头是“eMule”,结尾是“0.49c”的:^emule 0.49c$
选中所有名称中带有“eMule 0.49c”的(必须是“eMule 0.49c”,中间没有别的字符,不能是“eMule fake 0.49c”),需要转义:"emule 0.49c"
大小选择器帮您根据文件大小选择文件。