当前位置: 首页 >> 欧美电影 >> 火魔战车[中文字幕].Maximum.Overdrive.1986.1080p.BluRay.DTS.x265-10bit 8.81GB >> 正文

火魔战车[中文字幕].Maximum.Overdrive.1986.1080p.BluRay.DTS.x265-10bit 8.81GB

2021年08月27日 12:07:08     电影发布:来源于网络     电影分类:欧美电影     评论(0)    

火魔战车[中文字幕].Maximum.Overdrive.1986.1080p.BluRay.DTS.x265 10bit 8.81GB 科幻片 恐怖片 惊悚片 动作片 欧美电影  第1张

◎译 名 火魔战车 / 惊心动魄撞死你

◎片 名 Maximum Overdrive

◎年 代 1986

◎产 地 美国

◎类 别 动作 / 科幻 / 惊悚 / 恐怖

◎语 言 英语

◎上映日期 1986-07-25

◎IMDb链接 https://www.imdb.com/title/tt0091499/

◎豆瓣评分 5.9/10 (182人评价)

◎豆瓣链接 https://movie.douban.com/subject/1307126/

◎片 长 97 分钟

◎导 演 斯蒂芬·金 Stephen King (id:1049547)

◎编 剧 斯蒂芬·金 Stephen King (id:1049547)

◎演 员 艾米利奥·艾斯特维兹 Emilio Estevez (id:1044733)

帕特·亨格尔 Pat Hingle (id:1010678)

雅德丽·史密斯 Yeardley Smith (id:1009343)

Gene Hartline Gene Hartline (id:1286167)

劳拉·哈灵顿 Laura Harrington (id:1101702)

克里斯托弗·莫尼 Christopher Murney (id:1137267)

J·C·奎因 J.C. Quinn (id:1139506)

莱昂·里皮 Leon Rippy (id:1144752)

布鲁斯·莫里亚蒂 Bruce Moriarty (id:1292506)

Julius LeFlore Julius LeFlore (id:1289724)

Christine Anne Baur Christine Anne Baur (id:1278116)

Bernie Pock Bernie Pock (id:1000405)

Jock Brandis Jock Brandis (id:1077527)

霍尔特·格拉汉姆 Holter Graham (id:1005097)

弗兰基·费森 Frankie Faison (id:1019102)

米尔顿·苏博茨基 Milton Subotsky (id:1029064)

玛拉·马普勒斯 Marla Maples (id:1040771)

吉安卡罗·埃斯波西托 Giancarlo Esposito (id:1048143)

斯蒂芬·金 Stephen King (id:1049547)

Armando Nannuzzi Armando Nannuzzi (id:1051320)

Barry Bell Barry Bell (id:1066456)

迪诺·德·劳伦提斯 Dino De Laurentiis (id:1088425)

玛莎·德·劳伦提斯 Martha De Laurentiis (id:1148010)

米尔顿·苏博茨基 Milton Subotsky (id:1029064)

Armando Nannuzzi Armando Nannuzzi (id:1051320)

埃文·A·洛特曼 Evan A. Lottman (id:1033694)

Mary Colquhoun Mary Colquhoun (id:1281092)

Barry Nolan Barry Nolan (id:1293237)

◎标 签 美国 / 惊悚 / 恐怖 / 科幻 / 斯蒂芬·金 / 斯蒂芬.金 / 美国电影 / 1986

◎简 介

电影讲述人类与机器对抗的故事,被人类奴役了100多年的机器开始了对人类的追杀。斯蒂芬·金唯一导演过的电影作品,他不仅是导演,还在片头出镜。他邀请了摇滚乐队ACDC为影片配乐,而ACDC十分大方,直接写了三首新歌。其中的WHO MADE WHO真是烘托本片气氛的完美之作。

  1. ##### MediaInfo ######

  2. General

  3. Unique ID : 295703949688678765357418016774282296388 (0xDE768256DC86FA74E876CB2A75D43C44)

  4. Complete name : Maximum.Overdrive.1986.1080p.BluRay.DTS.x265-10bit-10007@BBQDDQ.COM.mkv

  5. Format : Matroska

  6. Format version : Version 4

  7. File size : 8.81 GiB

  8. Duration : 1 h 38 min

  9. Overall bit rate : 12.8 Mb/s

  10. Movie name : Maximum Overdrive 1986 1080p BluRay DTS x265-10bit-10007@BBQDDQ.COM

  11. Encoded date : UTC 2021-08-25 23:20:52

  12. Writing application : mkvmerge v38.0.0 ('The Silent Type') 64-bit

  13. Writing library : libebml v1.3.9 + libmatroska v1.5.2


  14. Video

  15. ID : 1

  16. Format : HEVC

  17. Format/Info : High Efficiency Video Coding

  18. Format profile : Main 10@L5.1@High

  19. Codec ID : V_MPEGH/ISO/HEVC

  20. Duration : 1 h 38 min

  21. Bit rate : 11.3 Mb/s

  22. Width : 1 920 pixels

  23. Height : 812 pixels

  24. Display aspect ratio : 2.35:1

  25. Frame rate mode : Constant

  26. Frame rate : 23.976 (24000/1001/53354) FPS

  27. Color space : YUV

  28. Chroma subsampling : 4:2:0

  29. Bit depth : 10 bits

  30. Bits/(Pixel*Frame) : 0.302

  31. Stream size : 7.76 GiB (88%)

  32. Title : veryzayin@HDSky

  33. Writing library : x265 - H.265/HEVC codec

  34. Default : Yes

  35. Forced : No


  36. Audio

  37. ID : 2

  38. Format : DTS

  39. Format/Info : Digital Theater Systems

  40. Codec ID : A_DTS

  41. Duration : 1 h 38 min

  42. Bit rate mode : Constant

  43. Bit rate : 1 509 kb/s

  44. Channel(s) : 6 channels

  45. Channel layout : C L R Ls Rs LFE

  46. Sampling rate : 48.0 kHz

  47. Frame rate : 93.750 FPS (512 SPF)

  48. Bit depth : 24 bits

  49. Compression mode : Lossy

  50. Stream size : 1.04 GiB (12%)

  51. Title : English

  52. Language : English

  53. Default : Yes

  54. Forced : No


  55. Text #1

  56. ID : 3

  57. Format : PGS

  58. Muxing mode : zlib

  59. Codec ID : S_HDMV/PGS

  60. Codec ID/Info : Picture based subtitle format used on BDs/HD-DVDs

  61. Duration : 1 h 34 min

  62. Bit rate : 13.3 kb/s

  63. Count of elements : 965

  64. Stream size : 9.00 MiB (0%)

  65. Title : CHS

  66. Language : Chinese

  67. Default : Yes

  68. Forced : No


  69. Text #2

  70. ID : 4

  71. Format : PGS

  72. Muxing mode : zlib

  73. Codec ID : S_HDMV/PGS

  74. Codec ID/Info : Picture based subtitle format used on BDs/HD-DVDs

  75. Duration : 1 h 34 min

  76. Bit rate : 13.6 kb/s

  77. Count of elements : 965

  78. Stream size : 9.21 MiB (0%)

  79. Title : CHT

  80. Language : Chinese

  81. Default : No

  82. Forced : No


  83. Menu

  84. 00:00:00.000 : en:Chapter 01

  85. 00:09:29.319 : en:Chapter 02

  86. 00:16:15.224 : en:Chapter 03

  87. 00:24:52.700 : en:Chapter 04

  88. 00:36:41.032 : en:Chapter 05

  89. 00:45:56.295 : en:Chapter 06

  90. 00:56:00.983 : en:Chapter 07

  91. 01:06:13.469 : en:Chapter 08

  92. 01:09:35.838 : en:Chapter 09

  93. 01:18:49.308 : en:Chapter 10

  94. 01:27:35.083 : en:Chapter 11

  95. 01:35:50.119 : en:Chapter 12


文件下载


除非特别注明,本文『火魔战车[中文字幕].Maximum.Overdrive.1986.1080p.BluRay.DTS.x265-10bit 8.81GB』来源于互联网机器人自动抓取,非本站原创。 浮游电影网不对本文拥有版权,如有侵犯,请联系邮箱:fuyouu#yandex.com[#换成@]投诉。我们会在15个工作日内删除。 但烦请转载时请标明出处:“本文转载于『浮游电影网』,原文地址:https://www.fuyouu.com/13949.html

评论吧骚年!

发表你的见解   

昵称*

E-mail*(建议输入,以便收到博主回复的提示邮件)

验证码*

您可以使用eMule或eMule Mod(Windows)、aMule(Win、Linux、Mac)等软件下载eD2k链接。。
eMule收藏集(.emulecollection)文件是您选中的所有链接的列表文件。eMule可以直接下载它们。
按住SHIFT键选择可以选中多个选择框。
可用文件名和大小选择器来选择文件。
文件名选择器帮您根据文件名称或后缀来选择文件。不分大小写。
符号使用:
和:空格( )、+
不包含:-
或:|
转义:一对英文引号("");
匹配开头:^
匹配结尾:$
例如:
选中所有名称中包含有“eMule”或“0.49c”字眼,但不包含有“exe”字眼的:emule|0.49c -exe
选中所有名称的开头是“eMule”,结尾是“0.49c”的:^emule 0.49c$
选中所有名称中带有“eMule 0.49c”的(必须是“eMule 0.49c”,中间没有别的字符,不能是“eMule fake 0.49c”),需要转义:"emule 0.49c"
大小选择器帮您根据文件大小选择文件。