当前位置: 首页 >> 港台电影 >> 猛龙过江[国粤语配音/中文字幕].The.Way.of.the.Dragon.1972.1080p.BluRay.x265.10bit.DTS.2Audio 8.55GB >> 正文

猛龙过江[国粤语配音/中文字幕].The.Way.of.the.Dragon.1972.1080p.BluRay.x265.10bit.DTS.2Audio 8.55GB

2021年08月26日 16:14:13     电影发布:来源于网络     电影分类:港台电影     评论(0)    

猛龙过江[国粤语配音/中文字幕].The.Way.of.the.Dragon.1972.1080p.BluRay.x265.10bit.DTS.2Audio 8.55GB 犯罪片 惊悚片 动作片 喜剧片 剧情片 港台电影  第1张

◎译 名 猛龙过江 / The Way of the Dragon / Fury of the Dragon / Mang lung goh kong / Return of the Dragon / Revenge of the Dragon

◎片 名 猛龍過江

◎年 代 1972

◎产 地 中国香港

◎类 别 剧情 / 喜剧 / 动作 / 惊悚 / 犯罪

◎语 言 汉语普通话 / 粤语 / 英语 / 意大利语

◎上映日期 1972-12-30

◎IMDb链接 https://www.imdb.com/title/tt0068935/

◎豆瓣评分 8.4/10 (37903人评价)

◎豆瓣链接 https://movie.douban.com/subject/1306870/

◎片 长 100 分钟

◎导 演 李小龙 Bruce Lee (id:1036369)

◎编 剧 李小龙 Bruce Lee (id:1036369)

◎演 员 李小龙 Bruce Lee (id:1036369)

苗可秀 Nora Miao (id:1005207)

小麒麟 Little Unicorn (id:1348010)

张佩山 Pei-Shan Chang (id:1331539)

乔恩·T·巴恩 Jon T. Benn (id:1436883)

黄仁植 In-Sik Whang (id:1350365)

安德鲁·摩根 Andre Morgan (id:1276311)

约翰·德比希尔 John Derbyshire (id:1186578)

刘永 Anthony Liu (id:1005636)

林正英 Ching-Ying Lam (id:1016823)

罗伯特·沃尔 Robert Wall (id:1022932)

查克·诺瑞斯 Chuck Norris (id:1031884)

阿里卡尔多·维尼 Riccardo Billi (id:1048598)

黄宗迅 Chung-Hsin Huang (id:1101334)

玛丽莎·隆戈 Malisa Longo (id:1125489)

魏平澳 Ping-Ao Wei (id:1136187)

元彪 Biao Yuen (id:1163752)

Homan Tapsell Homan Tapsell (id:1439008)

邹文怀 Raymond Chow (id:1016883)

李小龙 Bruce Lee (id:1036369)

顾嘉辉 Joseph Koo (id:1017256)

西本正 Tadashi Nishimoto (id:1340554)

张耀宗 Peter Cheung (id:1280650)

成运安 Shing Gwan-On (id:1407239)

李小龙 Bruce Lee (id:1036369)

小麒麟 Little Unicorn (id:1348010)

周少龙 Shao Lung Chou (id:1344862)

◎标 签 李小龙 / 动作 / 香港 / 功夫 / 经典 / 香港电影 / 1972 / 猛龙过江

◎简 介

痴迷练拳的唐龙(李小龙 饰)不远万里来到罗马帮助深陷麻烦的陈清华(苗可秀 饰),因某大老板(Jon T. Benn 饰)看中了清华饭店的地皮,为逼其就范,派流氓日夜骚扰。阿龙一分钟就撂倒了四名流氓,后又收服了饭店众伙计,打晕了埋伏在公寓的枪手(Homan Tapsell 饰),制服了大老板及其十余手下,救回了被掳走的清华。贼心不死的大老板从美国请来空手道高手Colt(Chuck Norris 饰),并将阿龙诱骗至斗兽场……

◎获奖情况 (共2项)

第11届台北金马影展 (1973)

金马奖 最佳剧情片(提名)

金马奖 最佳剪辑

└──张耀宗 (id:1280650)

  1. ##### MediaInfo ######

  2. General

  3. Unique ID : 185171746379209000605220505485482980919 (0x8B4EC7F7855BFC4CE82D622D1D90F637)

  4. Complete name : The.Way.of.the.Dragon.1972.1080p.BluRay.x265.10bit.DTS.2Audio-10017@BBQDDQ.COM.mkv

  5. Format : Matroska

  6. Format version : Version 4

  7. File size : 8.55 GiB

  8. Duration : 1 h 39 min

  9. Overall bit rate : 12.3 Mb/s

  10. Movie name : The.Way.of.the.Dragon

  11. Encoded date : UTC 2021-08-22 04:28:05

  12. Writing application : mkvmerge v51.0.0 ('I Wish') 64-bit

  13. Writing library : libebml v1.4.0 + libmatroska v1.6.2


  14. Video

  15. ID : 1

  16. Format : HEVC

  17. Format/Info : High Efficiency Video Coding

  18. Format profile : Main 10@L4@Main

  19. Codec ID : V_MPEGH/ISO/HEVC

  20. Duration : 1 h 39 min

  21. Bit rate : 9 295 kb/s

  22. Width : 1 920 pixels

  23. Height : 816 pixels

  24. Display aspect ratio : 2.35:1

  25. Frame rate mode : Constant

  26. Frame rate : 23.976 (24000/1001/53354) FPS

  27. Color space : YUV

  28. Chroma subsampling : 4:2:0

  29. Bit depth : 10 bits

  30. Bits/(Pixel*Frame) : 0.247

  31. Stream size : 6.44 GiB (75%)

  32. Writing library : x265 3.4+1-g07e3381df+31:[Windows][GCC 10.1.0][64 bit] Yuuki 10bit+8bit+12bit

  33. Encoding settings : rc=crf / crf=19.5000 / qcomp=0.70 / qpstep=4 / stats-write=0 / stats-read=0 / no-lossless / no-cu-lossless / aq-mode=3 / aq-strength=0.70 / cbqpoffs=0 / crqpoffs=0 / ipratio=1.40 / pbratio=1.30 / psy-rd=2.00 / psy-rdoq=0.00 / deblock=0:0 / ref=6 / limit-refs=1 / no-limit-modes / bframes=8 / b-adapt=2 / bframe-bias=0 / b-pyramid / b-intra / weightp / weightb / min-keyint=24 / max-keyint=240 / rc-lookahead=24 / gop-lookahead=0 / NTMzNTQ=uuDQuD2mJt9fsCf / scenecut=40 / hist-scenecut=0 / radl=0 / max-cu-size=64 / min-cu-size=8 / me=3 / subme=7 / merange=48 / rdoq-level=0 / rd=4 / rdpenalty=0 / dynamic-rd=0.00 / no-rd-refine / ----- / cutree / sao / no-rect / no-amp / no-open-gop / wpp / no-pmode / no-pme / no-psnr / no-ssim / nr-intra=0 / nr-inter=0 / no-constrained-intra / no-strong-intra-smoothing / max-tu-size=32 / tu-inter-depth=1 / tu-intra-depth=1 / limit-tu=0 / qg-size=32 / qpmax=69 / qpmin=0 / ----- / cpuid=533541111039 / frame-threads=3 / numa-pools=+ / log-level=2 / input-csp=1 / input-res=1920x816 / interlace=0 / level-idc=0 / high-tier=1 / uhd-bd=0 / no-allow-non-conformance / no-repeat-headers / aud / no-hrd / info / hash=0 / no-temporal-layers / lookahead-slices=0 / no-splice / no-intra-refresh / no-ssim-rd / signhide / no-tskip / max-merge=3 / temporal-mvp / no-frame-dup / no-hme / no-analyze-src-pics / no-sao-non-deblock / selective-sao=4 / early-skip / rskip / no-fast-intra / no-tskip-fast / no-splitrd-skip / zone-count=0 / no-strict-cbr / no-rc-grain / no-const-vbv / sar=0 / overscan=0 / videoformat=5 / range=0 / colorprim=2 / transfer=2 / colormatrix=2 / chromaloc=0 / display-window=0 / cll=0,0 / min-luma=0 / max-luma=1023 / log2-max-poc-lsb=8 / vui-timing-info / vui-hrd-info / slices=1 / no-opt-qp-pps / no-opt-ref-list-length-pps / no-multi-pass-opt-rps / scenecut-bias=0.05 / hist-threshold=0.01 / no-opt-cu-delta-qp / no-aq-motion / no-hdr10 / no-hdr10-opt / no-dhdr10-opt / no-idr-recovery-sei / analysis-reuse-level=0 / analysis-save-reuse-level=0 / analysis-load-reuse-level=0 / scale-factor=0 / refine-intra=0 / refine-inter=0 / refine-mv=1 / refine-ctu-distortion=0 / no-limit-sao / ctu-info=0 / no-lowpass-dct / refine-analysis-type=0 / copy-pic=1 / max-ausize-factor=1.0 / no-dynamic-refine / no-single-sei / no-hevc-aq / no-svt / no-field / qp-adaptation-range=1.00 / no-scenecut-aware-qpconformance-window-offsets / right=0 / bottom=0 / NTMzNTQ= / decoder-max-rate=0

  34. Default : Yes

  35. Forced : No


  36. Audio #1

  37. ID : 2

  38. ID in the original source medium : 4352 (0x1100)

  39. Format : DTS

  40. Format/Info : Digital Theater Systems

  41. Codec ID : A_DTS

  42. Duration : 1 h 39 min

  43. Bit rate mode : Constant

  44. Bit rate : 1 509 kb/s

  45. Channel(s) : 6 channels

  46. Channel layout : C L R Ls Rs LFE

  47. Sampling rate : 48.0 kHz

  48. Frame rate : 93.750 FPS (512 SPF)

  49. Bit depth : 24 bits

  50. Compression mode : Lossy

  51. Stream size : 1.05 GiB (12%)

  52. Title : Cantonese

  53. Language : Chinese

  54. Default : Yes

  55. Forced : No

  56. Original source medium : Blu-ray


  57. Audio #2

  58. ID : 3

  59. ID in the original source medium : 4353 (0x1101)

  60. Format : DTS

  61. Format/Info : Digital Theater Systems

  62. Codec ID : A_DTS

  63. Duration : 1 h 39 min

  64. Bit rate mode : Constant

  65. Bit rate : 1 509 kb/s

  66. Channel(s) : 6 channels

  67. Channel layout : C L R Ls Rs LFE

  68. Sampling rate : 48.0 kHz

  69. Frame rate : 93.750 FPS (512 SPF)

  70. Bit depth : 24 bits

  71. Compression mode : Lossy

  72. Stream size : 1.05 GiB (12%)

  73. Title : Mandarin

  74. Language : Chinese

  75. Default : No

  76. Forced : No

  77. Original source medium : Blu-ray


  78. Text #1

  79. ID : 4

  80. ID in the original source medium : 4608 (0x1200)

  81. Format : PGS

  82. Muxing mode : zlib

  83. Codec ID : S_HDMV/PGS

  84. Codec ID/Info : Picture based subtitle format used on BDs/HD-DVDs

  85. Duration : 1 h 34 min

  86. Bit rate : 18.4 kb/s

  87. Count of elements : 1272

  88. Stream size : 12.5 MiB (0%)

  89. Title : cht

  90. Language : Chinese

  91. Default : Yes

  92. Forced : No

  93. Original source medium : Blu-ray


  94. Text #2

  95. ID : 5

  96. ID in the original source medium : 4609 (0x1201)

  97. Format : PGS

  98. Muxing mode : zlib

  99. Codec ID : S_HDMV/PGS

  100. Codec ID/Info : Picture based subtitle format used on BDs/HD-DVDs

  101. Duration : 1 h 34 min

  102. Bit rate : 17.1 kb/s

  103. Count of elements : 1272

  104. Stream size : 11.6 MiB (0%)

  105. Title : chs

  106. Language : Chinese

  107. Default : No

  108. Forced : No

  109. Original source medium : Blu-ray


  110. Text #3

  111. ID : 6

  112. ID in the original source medium : 4610 (0x1202)

  113. Format : PGS

  114. Muxing mode : zlib

  115. Codec ID : S_HDMV/PGS

  116. Codec ID/Info : Picture based subtitle format used on BDs/HD-DVDs

  117. Duration : 1 h 34 min

  118. Bit rate : 15.9 kb/s

  119. Count of elements : 1272

  120. Stream size : 10.8 MiB (0%)

  121. Title : eng

  122. Language : English

  123. Default : No

  124. Forced : No

  125. Original source medium : Blu-ray


  126. Menu

  127. 00:00:00.000 : en:第 01 章

  128. 00:02:47.709 : en:第 02 章

  129. 00:08:06.402 : en:第 03 章

  130. 00:12:47.808 : en:第 04 章

  131. 00:18:12.925 : en:第 05 章

  132. 00:21:25.200 : en:第 06 章

  133. 00:27:06.499 : en:第 07 章

  134. 00:32:01.669 : en:第 08 章

  135. 00:38:24.885 : en:第 09 章

  136. 00:44:34.046 : en:第 10 章

  137. 00:49:08.654 : en:第 11 章

  138. 00:53:56.149 : en:第 12 章

  139. 00:57:35.910 : en:第 13 章

  140. 01:02:40.256 : en:第 14 章

  141. 01:08:50.960 : en:第 15 章

  142. 01:12:10.951 : en:第 16 章

  143. 01:15:14.718 : en:第 17 章

  144. 01:21:39.352 : en:第 18 章

  145. 01:24:45.080 : en:第 19 章

  146. 01:35:06.826 : en:第 20 章


文件下载


除非特别注明,本文『猛龙过江[国粤语配音/中文字幕].The.Way.of.the.Dragon.1972.1080p.BluRay.x265.10bit.DTS.2Audio 8.55GB』来源于互联网机器人自动抓取,非本站原创。 浮游电影网不对本文拥有版权,如有侵犯,请联系邮箱:fuyouu#yandex.com[#换成@]投诉。我们会在15个工作日内删除。 但烦请转载时请标明出处:“本文转载于『浮游电影网』,原文地址:https://www.fuyouu.com/13943.html

评论吧骚年!

发表你的见解   

昵称*

E-mail*(建议输入,以便收到博主回复的提示邮件)

验证码*

您可以使用eMule或eMule Mod(Windows)、aMule(Win、Linux、Mac)等软件下载eD2k链接。。
eMule收藏集(.emulecollection)文件是您选中的所有链接的列表文件。eMule可以直接下载它们。
按住SHIFT键选择可以选中多个选择框。
可用文件名和大小选择器来选择文件。
文件名选择器帮您根据文件名称或后缀来选择文件。不分大小写。
符号使用:
和:空格( )、+
不包含:-
或:|
转义:一对英文引号("");
匹配开头:^
匹配结尾:$
例如:
选中所有名称中包含有“eMule”或“0.49c”字眼,但不包含有“exe”字眼的:emule|0.49c -exe
选中所有名称的开头是“eMule”,结尾是“0.49c”的:^emule 0.49c$
选中所有名称中带有“eMule 0.49c”的(必须是“eMule 0.49c”,中间没有别的字符,不能是“eMule fake 0.49c”),需要转义:"emule 0.49c"
大小选择器帮您根据文件大小选择文件。