当前位置: 首页 >> 港台电影 >> 阴阳路2:我在你左右[国语配音/粤语配音/中文字幕].Troublesome.Night.2.1997.1080p.BluRay.x265.10bit.FLAC.2.0.2Audio 4.89GB >> 正文

阴阳路2:我在你左右[国语配音/粤语配音/中文字幕].Troublesome.Night.2.1997.1080p.BluRay.x265.10bit.FLAC.2.0.2Audio 4.89GB

2021年08月26日 10:11:49     电影发布:来源于网络     电影分类:港台电影     评论(0)    

阴阳路2:我在你左右[国语配音/粤语配音/中文字幕].Troublesome.Night.2.1997.1080p.BluRay.x265.10bit.FLAC.2.0.2Audio 4.89GB 恐怖片 惊悚片 喜剧片 港台电影  第1张

◎译 名 阴阳路2:我在你左右 / Troublesome Night 2

◎年 代 1997

◎产 地 中国香港

◎类 别 喜剧 / 惊悚 / 恐怖

◎语 言 粤语

◎上映日期 1997-09-13(中国香港)

◎IMDb链接 https://www.imdb.com/title/tt0269987/

◎豆瓣评分 6.6/10 (10267人评价)

◎豆瓣链接 https://movie.douban.com/subject/1298152/

◎片 长 96分钟

◎导 演 邱礼涛 Herman Yau (id:1274313)

◎编 剧 曾国赐 Kwok Chi Tsang (id:1403745)

刘孝伟 Kenneth Hau Wai Lau (id:1403742)

◎演 员 古天乐 Louis Koo (id:1027577)

雷宇扬 Simon Lui (id:1121730)

丁子峻 Allen Ting (id:1299287)

钱嘉乐 Kar Lok Chin (id:1025476)

温裕红 Esther Wan (id:1345875)

李蕙敏 Amanda Lee (id:1103819)

吴志雄 Chi Hung Ng (id:1316796)

张达明 Tat-Ming Cheung (id:1274433)

黎耀祥 Wayne Lai (id:1274440)

伍咏薇 Christine Ng (id:1033899)

谷德昭 Vincent Kok (id:1025526)

许芬 Fan Hui (id:1330727)

江希文 Liz Kong (id:1052273)

孟辉 Fai Mang (id:1443408)

麦振鸿 Chun Hung Mak (id:1328645)

陈广鸿 Kwong-Hung Chan (id:1318796)

慎芝 (id:1344895)

◎标 签 恐怖 / 香港 / 香港电影 / 古天乐 / 阴阳路 / 惊悚 / 邱礼涛 / 1997

◎简 介

琛仔(古天乐饰)、紫少(雷宇扬饰)和长发(丁子峻饰)是广播台灵异节目的当红主持人。老板(谷德昭饰)为达收听率不择手段,没有告知三人当年有人因为作该节目暴毙的事。

一日三人夜晚作节目时接到一个名叫Anita(李蕙敏饰)的少女打来的电话,诉说痛失男友的痛苦。不耐烦的长发让Anita想不开就去跳楼,结果Anita就范。

此后,三人身边开始不断出现怪事,情况也越来越凶险......

  1. ##### MediaInfo ######

  2. General

  3. Unique ID : 92623733524114475616172011505304116753 (0x45AEAEA45D516AABFFB4D7482C6E9E11)

  4. Complete name : Troublesome.Night.2.1997.1080p.BluRay.x265.10bit.FLAC.2.0.2Audio-10017@BBQDDQ.COM.mkv

  5. Format : Matroska

  6. Format version : Version 4

  7. File size : 4.89 GiB

  8. Duration : 1 h 36 min

  9. Overall bit rate mode : Variable

  10. Overall bit rate : 7 238 kb/s

  11. Encoded date : UTC 2021-08-25 05:42:58

  12. Writing application : mkvmerge v55.0.0 ('Waiting For Space') 64-bit

  13. Writing library : libebml v1.4.2 + libmatroska v1.6.4


  14. Video

  15. ID : 1

  16. Format : HEVC

  17. Format/Info : High Efficiency Video Coding

  18. Format profile : Main 10@L5@Main

  19. Codec ID : V_MPEGH/ISO/HEVC

  20. Duration : 1 h 36 min

  21. Bit rate : 5 707 kb/s

  22. Width : 1 920 pixels

  23. Height : 1 080 pixels

  24. Display aspect ratio : 16:9

  25. Frame rate mode : Constant

  26. Frame rate : 24.000 FPS

  27. Color space : YUV

  28. Chroma subsampling : 4:2:0

  29. Bit depth : 10 bits

  30. Bits/(Pixel*Frame) : 0.115

  31. Stream size : 3.85 GiB (79%)

  32. Writing library : x265 3.4+1-g07e3381df+31:[Windows][GCC 10.1.0][64 bit] Yuuki 10bit+8bit+12bit

  33. Encoding settings : rc=crf / crf=18.5000 / qcomp=0.60 / qpstep=4 / stats-write=0 / stats-read=0 / no-lossless / no-cu-lossless / aq-mode=3 / aq-strength=0.70 / cbqpoffs=0 / crqpoffs=0 / ipratio=1.40 / pbratio=1.30 / psy-rd=2.00 / psy-rdoq=0.00 / deblock=0:0 / ref=6 / limit-refs=1 / no-limit-modes / bframes=8 / b-adapt=2 / bframe-bias=0 / b-pyramid / b-intra / weightp / weightb / min-keyint=24 / max-keyint=240 / rc-lookahead=24 / gop-lookahead=0 / NTMzNTQ=uuDQuD2mJt9fsCf / scenecut=40 / hist-scenecut=0 / radl=0 / max-cu-size=64 / min-cu-size=8 / me=3 / subme=7 / merange=48 / rdoq-level=0 / rd=4 / rdpenalty=0 / dynamic-rd=0.00 / no-rd-refine / ----- / cutree / sao / no-rect / no-amp / no-open-gop / wpp / no-pmode / no-pme / no-psnr / no-ssim / nr-intra=0 / nr-inter=0 / no-constrained-intra / no-strong-intra-smoothing / max-tu-size=32 / tu-inter-depth=1 / tu-intra-depth=1 / limit-tu=0 / qg-size=32 / qpmax=69 / qpmin=0 / ----- / cpuid=533541111039 / frame-threads=4 / numa-pools=+ / log-level=2 / input-csp=1 / input-res=1920x1080 / interlace=0 / level-idc=0 / high-tier=1 / uhd-bd=0 / no-allow-non-conformance / no-repeat-headers / aud / no-hrd / info / hash=0 / no-temporal-layers / lookahead-slices=0 / no-splice / no-intra-refresh / no-ssim-rd / signhide / no-tskip / max-merge=3 / temporal-mvp / no-frame-dup / no-hme / no-analyze-src-pics / no-sao-non-deblock / selective-sao=4 / early-skip / rskip / no-fast-intra / no-tskip-fast / no-splitrd-skip / zone-count=0 / no-strict-cbr / no-rc-grain / no-const-vbv / sar=0 / overscan=0 / videoformat=5 / range=0 / colorprim=2 / transfer=2 / colormatrix=2 / chromaloc=0 / display-window=0 / cll=0,0 / min-luma=0 / max-luma=1023 / log2-max-poc-lsb=8 / vui-timing-info / vui-hrd-info / slices=1 / no-opt-qp-pps / no-opt-ref-list-length-pps / no-multi-pass-opt-rps / scenecut-bias=0.05 / hist-threshold=0.01 / no-opt-cu-delta-qp / no-aq-motion / no-hdr10 / no-hdr10-opt / no-dhdr10-opt / no-idr-recovery-sei / analysis-reuse-level=0 / analysis-save-reuse-level=0 / analysis-load-reuse-level=0 / scale-factor=0 / refine-intra=0 / refine-inter=0 / refine-mv=1 / refine-ctu-distortion=0 / no-limit-sao / ctu-info=0 / no-lowpass-dct / refine-analysis-type=0 / copy-pic=1 / max-ausize-factor=1.0 / no-dynamic-refine / no-single-sei / no-hevc-aq / no-svt / no-field / qp-adaptation-range=1.00 / no-scenecut-aware-qpconformance-window-offsets / right=0 / bottom=0 / NTMzNTQ= / decoder-max-rate=0

  34. Language : English

  35. Default : Yes

  36. Forced : No


  37. Audio #1

  38. ID : 2

  39. Format : FLAC

  40. Format/Info : Free Lossless Audio Codec

  41. Codec ID : A_FLAC

  42. Duration : 1 h 36 min

  43. Bit rate mode : Variable

  44. Bit rate : 730 kb/s

  45. Channel(s) : 2 channels

  46. Channel layout : L R

  47. Sampling rate : 48.0 kHz

  48. Frame rate : 11.719 FPS (4096 SPF)

  49. Bit depth : 24 bits

  50. Compression mode : Lossless

  51. Stream size : 505 MiB (10%)

  52. Title : Cantonese

  53. Writing library : libFLAC 1.2.1 (UTC 2007-09-17)

  54. Language : Chinese

  55. Default : Yes

  56. Forced : No


  57. Audio #2

  58. ID : 3

  59. Format : FLAC

  60. Format/Info : Free Lossless Audio Codec

  61. Codec ID : A_FLAC

  62. Duration : 1 h 36 min

  63. Bit rate mode : Variable

  64. Bit rate : 758 kb/s

  65. Channel(s) : 2 channels

  66. Channel layout : L R

  67. Sampling rate : 48.0 kHz

  68. Frame rate : 11.719 FPS (4096 SPF)

  69. Bit depth : 24 bits

  70. Compression mode : Lossless

  71. Stream size : 524 MiB (10%)

  72. Title : Mandarin

  73. Writing library : libFLAC 1.2.1 (UTC 2007-09-17)

  74. Language : Chinese

  75. Default : No

  76. Forced : No


  77. Text #1

  78. ID : 4

  79. ID in the original source medium : 4609 (0x1201)

  80. Format : PGS

  81. Muxing mode : zlib

  82. Codec ID : S_HDMV/PGS

  83. Codec ID/Info : Picture based subtitle format used on BDs/HD-DVDs

  84. Duration : 1 h 32 min

  85. Bit rate : 39.8 kb/s

  86. Count of elements : 2918

  87. Stream size : 26.3 MiB (1%)

  88. Title : chs

  89. Language : Chinese

  90. Default : Yes

  91. Forced : No

  92. Original source medium : Blu-ray


  93. Text #2

  94. ID : 5

  95. ID in the original source medium : 4608 (0x1200)

  96. Format : PGS

  97. Muxing mode : zlib

  98. Codec ID : S_HDMV/PGS

  99. Codec ID/Info : Picture based subtitle format used on BDs/HD-DVDs

  100. Duration : 1 h 32 min

  101. Bit rate : 40.6 kb/s

  102. Count of elements : 2918

  103. Stream size : 26.9 MiB (1%)

  104. Title : cht

  105. Language : Chinese

  106. Default : No

  107. Forced : No

  108. Original source medium : Blu-ray


  109. Text #3

  110. ID : 6

  111. ID in the original source medium : 4610 (0x1202)

  112. Format : PGS

  113. Muxing mode : zlib

  114. Codec ID : S_HDMV/PGS

  115. Codec ID/Info : Picture based subtitle format used on BDs/HD-DVDs

  116. Duration : 1 h 32 min

  117. Bit rate : 41.8 kb/s

  118. Count of elements : 2843

  119. Stream size : 27.7 MiB (1%)

  120. Language : English

  121. Default : No

  122. Forced : No

  123. Original source medium : Blu-ray


  124. Menu

  125. 00:00:00.000 : en:第 01 章

  126. 00:07:04.458 : en:第 02 章

  127. 00:15:43.666 : en:第 03 章

  128. 00:25:20.083 : en:第 04 章

  129. 00:32:38.416 : en:第 05 章

  130. 00:39:17.750 : en:第 06 章

  131. 00:48:15.833 : en:第 07 章

  132. 00:57:09.791 : en:第 08 章

  133. 01:04:46.166 : en:第 09 章

  134. 01:11:39.875 : en:第 10 章

  135. 01:22:39.375 : en:第 11 章

  136. 01:29:18.041 : en:第 12 章


文件下载


除非特别注明,本文『阴阳路2:我在你左右[国语配音/粤语配音/中文字幕].Troublesome.Night.2.1997.1080p.BluRay.x265.10bit.FLAC.2.0.2Audio 4.89GB』来源于互联网机器人自动抓取,非本站原创。 浮游电影网不对本文拥有版权,如有侵犯,请联系邮箱:fuyouu#yandex.com[#换成@]投诉。我们会在15个工作日内删除。 但烦请转载时请标明出处:“本文转载于『浮游电影网』,原文地址:https://www.fuyouu.com/13932.html

评论吧骚年!

发表你的见解   

昵称*

E-mail*(建议输入,以便收到博主回复的提示邮件)

验证码*

您可以使用eMule或eMule Mod(Windows)、aMule(Win、Linux、Mac)等软件下载eD2k链接。。
eMule收藏集(.emulecollection)文件是您选中的所有链接的列表文件。eMule可以直接下载它们。
按住SHIFT键选择可以选中多个选择框。
可用文件名和大小选择器来选择文件。
文件名选择器帮您根据文件名称或后缀来选择文件。不分大小写。
符号使用:
和:空格( )、+
不包含:-
或:|
转义:一对英文引号("");
匹配开头:^
匹配结尾:$
例如:
选中所有名称中包含有“eMule”或“0.49c”字眼,但不包含有“exe”字眼的:emule|0.49c -exe
选中所有名称的开头是“eMule”,结尾是“0.49c”的:^emule 0.49c$
选中所有名称中带有“eMule 0.49c”的(必须是“eMule 0.49c”,中间没有别的字符,不能是“eMule fake 0.49c”),需要转义:"emule 0.49c"
大小选择器帮您根据文件大小选择文件。