当前位置: 首页 >> 欧美电影 >> 鬼哭神嚎[中文字幕].The.Amityville.Horror.2005.1080p.BluRay.DTS.x265-10bit 8.23GB >> 正文

鬼哭神嚎[中文字幕].The.Amityville.Horror.2005.1080p.BluRay.DTS.x265-10bit 8.23GB

2021年08月26日 10:09:22     电影发布:来源于网络     电影分类:欧美电影     评论(0)    

鬼哭神嚎[中文字幕].The.Amityville.Horror.2005.1080p.BluRay.DTS.x265 10bit 8.23GB 悬疑片 恐怖片 惊悚片 剧情片 欧美电影  第1张

◎译 名 鬼哭神嚎 / 惊悚艾米提威镇

◎片 名 The Amityville Horror

◎年 代 2005

◎产 地 美国

◎类 别 剧情 / 悬疑 / 惊悚 / 恐怖

◎语 言 英语

◎上映日期 2005-07-28

◎IMDb链接 https://www.imdb.com/title/tt0384806/

◎豆瓣评分 6.5/10 (17429人评价)

◎豆瓣链接 https://movie.douban.com/subject/1309032/

◎片 长 90 分钟

◎导 演 安德鲁·道格拉斯 Andrew Douglas (id:1307189)

◎编 剧 杰伊·安森 Jay Anson (id:1042280)

斯科特·考萨 Scott Kosar (id:1365766)

◎演 员 瑞恩·雷诺兹 Ryan Reynolds (id:1053623)

梅利莎·乔治 Melissa George (id:1025179)

杰西·詹姆斯 Jesse James (id:1205038)

吉米·本内特 Jimmy Bennett (id:1004639)

科洛·莫瑞兹 Chlo? Grace Moretz (id:1018981)

何塞·泰塔诺 José Taitano (id:1450969)

伊莎贝尔·康纳 Isabel Conner (id:1202704)

瑞秋·尼科尔斯 Rachel Nichols (id:1013774)

杰西·詹姆斯 Jesse James (id:1103776)

莱诺尔·托马斯·道格拉斯 Lenore Thomas Douglas (id:1451000)

布拉德利·福勒 Bradley Fuller (id:1284314)

大卫·克罗基特 David Crockett (id:1281502)

迈克尔·贝 Michael Bay (id:1027776)

罗杰·巴顿 Roger Barton (id:1421372)

克里斯蒂安·瓦格纳 Christian Wagner (id:1300243)

马科·鲁比奥 Marco Rubeo (id:1296269)

珍妮弗·威廉姆斯 Jennifer Williams (id:1300970)

道格拉斯·诺亚 Douglas Noe (id:1293238)

霍华德·伯杰 Howard Berger (id:1278442)

马克·帕兰斯基 Mark Palansky (id:1293834)

罗杰·盖耶特 Roger Guyett (id:1276493)

贝丝·达马托 Beth D'Amato (id:1281675)

肖恩·安德鲁·法登 Sean Andrew Faden (id:1283408)

内森·麦克基尼斯 Nathan McGuinness (id:1291611)

克拉斯·汉克 Claas Henke (id:1286435)

◎标 签 恐怖 / 惊悚 / 美国 / 恐怖片 / 美国电影 / 2005 / 悬疑 / 鬼哭神嚎

◎简 介

1974年11月13日夜,美国纽约长岛猎鹿公园别墅区。笛福家23岁的儿子罗纳德(布兰顿·唐纳德森 Brendan Donaldson 饰)突然狂性大发,在夜深人静之时将一家六口人全部杀害。在被警方逮捕后,他宣称自己是在恶魔的驱使下行此恶性,法官虽然未听信他的供词,不过该事件依旧喧嚣一时。一年后,正在憧憬全新生活的勒兹夫妇以极低的价格买下了笛福家的房子。但从他们入住那天开始,各种诡异事件便不断发生,且愈演愈烈。一家人不堪其扰,决定搬出这个恐怖所在,然而真正的危险才刚刚到来……

本片根据真实事件改编,为同名作品的重拍版,并荣获2005年青年选择奖最佳恐怖场景奖。

◎获奖情况 (共1项)

第15届MTV电影奖 (2006)

MTV电影奖 最佳惊恐戏表演(提名)

└──瑞秋·尼科尔斯 (id:1013774)

  1. ##### MediaInfo ######

  2. General

  3. Unique ID : 36936427832184731434440728936969148354 (0x1BC9B27E53434428C4DADA7D04B017C2)

  4. Complete name : The.Amityville.Horror.2005.1080p.BluRay.DTS.x265-10bit-10007@BBQDDQ.COM.mkv

  5. Format : Matroska

  6. Format version : Version 4

  7. File size : 8.23 GiB

  8. Duration : 1 h 29 min

  9. Overall bit rate : 13.2 Mb/s

  10. Movie name : The Amityville Horror 2005 1080p BluRay DTS x265-10bit-10007@BBQDDQ.COM

  11. Encoded date : UTC 2021-08-24 23:20:35

  12. Writing application : mkvmerge v38.0.0 ('The Silent Type') 64-bit

  13. Writing library : libebml v1.3.9 + libmatroska v1.5.2


  14. Video

  15. ID : 1

  16. Format : HEVC

  17. Format/Info : High Efficiency Video Coding

  18. Format profile : Main 10@L5.1@High

  19. Codec ID : V_MPEGH/ISO/HEVC

  20. Duration : 1 h 29 min

  21. Bit rate : 12.4 Mb/s

  22. Width : 1 920 pixels

  23. Height : 816 pixels

  24. Display aspect ratio : 2.35:1

  25. Frame rate mode : Constant

  26. Frame rate : 23.976 (24000/1001/53354) FPS

  27. Color space : YUV

  28. Chroma subsampling : 4:2:0

  29. Bit depth : 10 bits

  30. Bits/(Pixel*Frame) : 0.330

  31. Stream size : 7.74 GiB (94%)

  32. Title : veryzayin@HDSky

  33. Writing library : x265 - H.265/HEVC codec

  34. Default : Yes

  35. Forced : No


  36. Audio

  37. ID : 2

  38. Format : DTS

  39. Format/Info : Digital Theater Systems

  40. Codec ID : A_DTS

  41. Duration : 1 h 29 min

  42. Bit rate mode : Constant

  43. Bit rate : 768 kb/s

  44. Channel(s) : 6 channels

  45. Channel layout : C L R Ls Rs LFE

  46. Sampling rate : 48.0 kHz

  47. Frame rate : 93.750 FPS (512 SPF)

  48. Bit depth : 24 bits

  49. Compression mode : Lossy

  50. Stream size : 491 MiB (6%)

  51. Title : English

  52. Language : English

  53. Default : Yes

  54. Forced : No


  55. Text #1

  56. ID : 3

  57. Format : PGS

  58. Muxing mode : zlib

  59. Codec ID : S_HDMV/PGS

  60. Codec ID/Info : Picture based subtitle format used on BDs/HD-DVDs

  61. Duration : 1 h 21 min

  62. Bit rate : 17.5 kb/s

  63. Count of elements : 1255

  64. Stream size : 10.1 MiB (0%)

  65. Title : CHS

  66. Language : Chinese

  67. Default : Yes

  68. Forced : No


  69. Text #2

  70. ID : 4

  71. Format : PGS

  72. Muxing mode : zlib

  73. Codec ID : S_HDMV/PGS

  74. Codec ID/Info : Picture based subtitle format used on BDs/HD-DVDs

  75. Duration : 1 h 21 min

  76. Bit rate : 17.9 kb/s

  77. Count of elements : 1255

  78. Stream size : 10.4 MiB (0%)

  79. Title : CHT

  80. Language : Chinese

  81. Default : No

  82. Forced : No


  83. Menu

  84. 00:00:00.000 : en:Chapter 01

  85. 00:04:17.924 : en:Chapter 02

  86. 00:13:31.352 : en:Chapter 03

  87. 00:22:19.755 : en:Chapter 04

  88. 00:28:31.001 : en:Chapter 05

  89. 00:34:29.818 : en:Chapter 06

  90. 00:44:49.228 : en:Chapter 07

  91. 00:52:16.008 : en:Chapter 08

  92. 00:57:15.682 : en:Chapter 09

  93. 01:07:17.951 : en:Chapter 10

  94. 01:12:38.271 : en:Chapter 11

  95. 01:21:54.493 : en:Chapter 12


文件下载


除非特别注明,本文『鬼哭神嚎[中文字幕].The.Amityville.Horror.2005.1080p.BluRay.DTS.x265-10bit 8.23GB』来源于互联网机器人自动抓取,非本站原创。 浮游电影网不对本文拥有版权,如有侵犯,请联系邮箱:fuyouu#yandex.com[#换成@]投诉。我们会在15个工作日内删除。 但烦请转载时请标明出处:“本文转载于『浮游电影网』,原文地址:https://5.189.174.242/13930.html

评论吧骚年!

发表你的见解   

昵称*

E-mail*(建议输入,以便收到博主回复的提示邮件)

验证码*

您可以使用eMule或eMule Mod(Windows)、aMule(Win、Linux、Mac)等软件下载eD2k链接。。
eMule收藏集(.emulecollection)文件是您选中的所有链接的列表文件。eMule可以直接下载它们。
按住SHIFT键选择可以选中多个选择框。
可用文件名和大小选择器来选择文件。
文件名选择器帮您根据文件名称或后缀来选择文件。不分大小写。
符号使用:
和:空格( )、+
不包含:-
或:|
转义:一对英文引号("");
匹配开头:^
匹配结尾:$
例如:
选中所有名称中包含有“eMule”或“0.49c”字眼,但不包含有“exe”字眼的:emule|0.49c -exe
选中所有名称的开头是“eMule”,结尾是“0.49c”的:^emule 0.49c$
选中所有名称中带有“eMule 0.49c”的(必须是“eMule 0.49c”,中间没有别的字符,不能是“eMule fake 0.49c”),需要转义:"emule 0.49c"
大小选择器帮您根据文件大小选择文件。