当前位置: 首页 >> 欧美电影 >> 甜心女孩[中文字幕].Sweet.Girl.2021.1080p.HDR.NF.WEB-DL.DDP5.1.Atmos.HEVC 13.62GB >> 正文

甜心女孩[中文字幕].Sweet.Girl.2021.1080p.HDR.NF.WEB-DL.DDP5.1.Atmos.HEVC 13.62GB

2021年08月26日 10:05:03     电影发布:来源于网络     电影分类:欧美电影     评论(0)    

甜心女孩[中文字幕].Sweet.Girl.2021.1080p.HDR.NF.WEB DL.DDP5.1.Atmos.HEVC 13.62GB 惊悚片 动作片 剧情片 欧美电影  第1张

◎译 名 甜心女孩 / 护女煞星(台)

◎片 名 Sweet Girl

◎年 代 2021

◎产 地 美国

◎类 别 剧情 / 动作 / 惊悚

◎语 言 英语

◎上映日期 2021-08-20(美国)

◎IMDb链接 https://www.imdb.com/title/tt10731768/

◎豆瓣链接 https://movie.douban.com/subject/34778519/

◎片 长 109分钟

◎导 演 布莱恩·安德鲁·门多萨 Brian Andrew Mendoza (id:1448368)

◎编 剧 菲利普·艾斯纳 Philip Eisner (id:1454401)

格雷格·赫维兹 Gregg Hurwitz (id:1352027)

威尔·斯特普尔斯 Will Staples (id:1446538)

◎演 员 杰森·莫玛 Jason Momoa (id:1022614)

伊莎贝拉·莫奈 Isabela Moner (id:1356047)

阿德里娅·阿霍纳 Adria Arjona (id:1348880)

艾米·布伦尼曼 Amy Brenneman (id:1010591)

迈克尔·雷蒙德-詹姆斯 Michael Raymond-James (id:1201404)

凯蒂·M·奥布莱恩 Katy M. O'Brian (id:1407213)

贾斯汀·巴萨 Justin Bartha (id:1009257)

曼努埃尔·加西亚-鲁尔福 Manuel Garcia-Rulfo (id:1249341)

布莱恩·豪威 Brian Howe (id:1317100)

内尔森·富兰克林 Nelson Franklin (id:1333475)

雷吉·李 Reggie Lee (id:1316002)

莱克斯·斯科特·戴维斯 Lex Scott Davis (id:1396837)

拉扎·杰夫里 Raza Jaffrey (id:1275052)

多米尼克·福穆萨 Dominic Fumusa (id:1321526)

戴尔·帕文斯基 Dale Pavinski (id:1353549)

米丽娜·里韦罗 Milena Rivero (id:1441323)

威尔·布拉格罗夫 Will Blagrove (id:1205181)

詹妮弗·克里斯塔·帕尔默 Jennifer Christa Palmer (id:1264788)

威廉·卡尼亚 William Kania (id:1216458)

瑞奇·麦克道尔 Rickie McDowell (id:1413050)

Devin Reeve Devin Reeve (id:1033286)

Josephine Zoumanigui (id:1253386)

玛丽莎·托梅 Marisa Tomei (id:1047974)

布莱恩·安德鲁·门多萨 Brian Andrew Mendoza (id:1448368)

◎标 签 动作 / 杰森·莫玛 / 美国 / Netflix / 2021 / 复仇 / 惊悚 / 美国电影

◎简 介

爱家男子雷·库珀发誓要让制药公司付出代价,因为在他的妻子(阿德里娅·阿霍纳饰)死于癌症之前,该公司将一种或能救命的药物从市场上撤下。然而,这场真相探寻之旅却让他和女儿瑞秋(伊莎贝拉·梅塞德饰)陷入险境,自此雷的任务变成了复仇,以保护自己唯一的家人。

  1. ##### MediaInfo ######

  2. General

  3. Unique ID : 178555063348733813064334855775152058577 (0x8654744E7B324BE3396ACB80A10D30D1)

  4. Complete name : Sweet.Girl.2021.1080p.HDR.NF.WEB-DL.DDP5.1.Atmos.HEVC-10002@BBQDDQ.COM.mkv

  5. Format : Matroska

  6. Format version : Version 4

  7. File size : 13.6 GiB

  8. Duration : 1 h 50 min

  9. Overall bit rate : 17.7 Mb/s

  10. Encoded date : UTC 2021-08-25 08:19:20

  11. Writing application : mkvmerge v44.0.0 ('Domino') 64-bit

  12. Writing library : libebml v1.3.10 + libmatroska v1.5.2


  13. Video

  14. ID : 1

  15. Format : HEVC

  16. Format/Info : High Efficiency Video Coding

  17. Format profile : Main 10@L4@Main

  18. HDR format : SMPTE ST 2086, HDR10 compatible

  19. Codec ID : V_MPEGH/ISO/HEVC

  20. Duration : 1 h 48 min

  21. Bit rate : 5 673 kb/s

  22. Width : 1 920 pixels

  23. Height : 1 080 pixels

  24. Display aspect ratio : 16:9

  25. Frame rate mode : Constant

  26. Frame rate : 24.000 FPS

  27. Color space : YUV

  28. Chroma subsampling : 4:2:0 (Type 2)

  29. Bit depth : 10 bits

  30. Bits/(Pixel*Frame) : 0.114

  31. Stream size : 4.29 GiB (31%)

  32. Default : Yes

  33. Forced : No

  34. Color range : Limited

  35. Color primaries : BT.2020

  36. Transfer characteristics : PQ

  37. Matrix coefficients : BT.2020 non-constant

  38. Mastering display color primaries : Display P3

  39. Mastering display luminance : min: 0.0001 cd/m2, max: 1000 cd/m2

  40. Maximum Content Light Level : 756 cd/m2

  41. Maximum Frame-Average Light Level : 378 cd/m2


  42. Audio #1

  43. ID : 2

  44. Format : E-AC-3 JOC

  45. Format/Info : Enhanced AC-3 with Joint Object Coding

  46. Commercial name : Dolby Digital Plus with Dolby Atmos

  47. Codec ID : A_EAC3

  48. Duration : 1 h 50 min

  49. Bit rate mode : Constant

  50. Bit rate : 768 kb/s

  51. Channel(s) : 6 channels

  52. Channel layout : L R C LFE Ls Rs

  53. Sampling rate : 48.0 kHz

  54. Frame rate : 31.250 FPS (1536 SPF)

  55. Compression mode : Lossy

  56. Stream size : 606 MiB (4%)

  57. Title : English

  58. Language : English

  59. Service kind : Complete Main

  60. Default : Yes

  61. Forced : No

  62. Complexity index : 16

  63. Number of dynamic objects : 15

  64. Bed channel count : 1 channel

  65. Bed channel configuration : LFE


  66. Audio #2

  67. ID : 3

  68. Format : E-AC-3

  69. Format/Info : Enhanced AC-3

  70. Commercial name : Dolby Digital Plus

  71. Codec ID : A_EAC3

  72. Duration : 1 h 50 min

  73. Bit rate mode : Constant

  74. Bit rate : 640 kb/s

  75. Channel(s) : 6 channels

  76. Channel layout : L R C LFE Ls Rs

  77. Sampling rate : 48.0 kHz

  78. Frame rate : 31.250 FPS (1536 SPF)

  79. Compression mode : Lossy

  80. Stream size : 505 MiB (4%)

  81. Title : Arabic Syria

  82. Language : Arabic

  83. Service kind : Complete Main

  84. Default : No

  85. Forced : No


  86. Audio #3

  87. ID : 4

  88. Format : E-AC-3

  89. Format/Info : Enhanced AC-3

  90. Commercial name : Dolby Digital Plus

  91. Codec ID : A_EAC3

  92. Duration : 1 h 50 min

  93. Bit rate mode : Constant

  94. Bit rate : 640 kb/s

  95. Channel(s) : 6 channels

  96. Channel layout : L R C LFE Ls Rs

  97. Sampling rate : 48.0 kHz

  98. Frame rate : 31.250 FPS (1536 SPF)

  99. Compression mode : Lossy

  100. Stream size : 505 MiB (4%)

  101. Title : Czech

  102. Language : Czech

  103. Service kind : Complete Main

  104. Default : No

  105. Forced : No


  106. Audio #4

  107. ID : 5

  108. Format : E-AC-3

  109. Format/Info : Enhanced AC-3

  110. Commercial name : Dolby Digital Plus

  111. Codec ID : A_EAC3

  112. Duration : 1 h 50 min

  113. Bit rate mode : Constant

  114. Bit rate : 640 kb/s

  115. Channel(s) : 6 channels

  116. Channel layout : L R C LFE Ls Rs

  117. Sampling rate : 48.0 kHz

  118. Frame rate : 31.250 FPS (1536 SPF)

  119. Compression mode : Lossy

  120. Stream size : 505 MiB (4%)

  121. Title : French

  122. Language : French

  123. Service kind : Complete Main

  124. Default : No

  125. Forced : No


  126. Audio #5

  127. ID : 6

  128. Format : E-AC-3

  129. Format/Info : Enhanced AC-3

  130. Commercial name : Dolby Digital Plus

  131. Codec ID : A_EAC3

  132. Duration : 1 h 50 min

  133. Bit rate mode : Constant

  134. Bit rate : 640 kb/s

  135. Channel(s) : 6 channels

  136. Channel layout : L R C LFE Ls Rs

  137. Sampling rate : 48.0 kHz

  138. Frame rate : 31.250 FPS (1536 SPF)

  139. Compression mode : Lossy

  140. Stream size : 505 MiB (4%)

  141. Title : German

  142. Language : German

  143. Service kind : Complete Main

  144. Default : No

  145. Forced : No


  146. Audio #6

  147. ID : 7

  148. Format : E-AC-3

  149. Format/Info : Enhanced AC-3

  150. Commercial name : Dolby Digital Plus

  151. Codec ID : A_EAC3

  152. Duration : 1 h 50 min

  153. Bit rate mode : Constant

  154. Bit rate : 640 kb/s

  155. Channel(s) : 6 channels

  156. Channel layout : L R C LFE Ls Rs

  157. Sampling rate : 48.0 kHz

  158. Frame rate : 31.250 FPS (1536 SPF)

  159. Compression mode : Lossy

  160. Stream size : 505 MiB (4%)

  161. Title : Hindi

  162. Language : Hindi

  163. Service kind : Complete Main

  164. Default : No

  165. Forced : No


  166. Audio #7

  167. ID : 8

  168. Format : E-AC-3

  169. Format/Info : Enhanced AC-3

  170. Commercial name : Dolby Digital Plus

  171. Codec ID : A_EAC3

  172. Duration : 1 h 50 min

  173. Bit rate mode : Constant

  174. Bit rate : 640 kb/s

  175. Channel(s) : 6 channels

  176. Channel layout : L R C LFE Ls Rs

  177. Sampling rate : 48.0 kHz

  178. Frame rate : 31.250 FPS (1536 SPF)

  179. Compression mode : Lossy

  180. Stream size : 505 MiB (4%)

  181. Title : Hungarian

  182. Language : Hungarian

  183. Service kind : Complete Main

  184. Default : No

  185. Forced : No


  186. Audio #8

  187. ID : 9

  188. Format : E-AC-3

  189. Format/Info : Enhanced AC-3

  190. Commercial name : Dolby Digital Plus

  191. Codec ID : A_EAC3

  192. Duration : 1 h 50 min

  193. Bit rate mode : Constant

  194. Bit rate : 640 kb/s

  195. Channel(s) : 6 channels

  196. Channel layout : L R C LFE Ls Rs

  197. Sampling rate : 48.0 kHz

  198. Frame rate : 31.250 FPS (1536 SPF)

  199. Compression mode : Lossy

  200. Stream size : 505 MiB (4%)

  201. Title : Italian

  202. Language : Italian

  203. Service kind : Complete Main

  204. Default : No

  205. Forced : No


  206. Audio #9

  207. ID : 10

  208. Format : E-AC-3

  209. Format/Info : Enhanced AC-3

  210. Commercial name : Dolby Digital Plus

  211. Codec ID : A_EAC3

  212. Duration : 1 h 50 min

  213. Bit rate mode : Constant

  214. Bit rate : 448 kb/s

  215. Channel(s) : 6 channels

  216. Channel layout : L R C LFE Ls Rs

  217. Sampling rate : 48.0 kHz

  218. Frame rate : 31.250 FPS (1536 SPF)

  219. Compression mode : Lossy

  220. Stream size : 354 MiB (3%)

  221. Title : Japanese

  222. Language : Japanese

  223. Service kind : Complete Main

  224. Default : No

  225. Forced : No


  226. Audio #10

  227. ID : 11

  228. Format : E-AC-3

  229. Format/Info : Enhanced AC-3

  230. Commercial name : Dolby Digital Plus

  231. Codec ID : A_EAC3

  232. Duration : 1 h 50 min

  233. Bit rate mode : Constant

  234. Bit rate : 640 kb/s

  235. Channel(s) : 6 channels

  236. Channel layout : L R C LFE Ls Rs

  237. Sampling rate : 48.0 kHz

  238. Frame rate : 31.250 FPS (1536 SPF)

  239. Compression mode : Lossy

  240. Stream size : 505 MiB (4%)

  241. Title : Korean

  242. Language : Korean

  243. Service kind : Complete Main

  244. Default : No

  245. Forced : No


  246. Audio #11

  247. ID : 12

  248. Format : E-AC-3

  249. Format/Info : Enhanced AC-3

  250. Commercial name : Dolby Digital Plus

  251. Codec ID : A_EAC3

  252. Duration : 1 h 50 min

  253. Bit rate mode : Constant

  254. Bit rate : 640 kb/s

  255. Channel(s) : 6 channels

  256. Channel layout : L R C LFE Ls Rs

  257. Sampling rate : 48.0 kHz

  258. Frame rate : 31.250 FPS (1536 SPF)

  259. Compression mode : Lossy

  260. Stream size : 505 MiB (4%)

  261. Title : Polish

  262. Language : Polish

  263. Service kind : Complete Main

  264. Default : No

  265. Forced : No


  266. Audio #12

  267. ID : 13

  268. Format : E-AC-3

  269. Format/Info : Enhanced AC-3

  270. Commercial name : Dolby Digital Plus

  271. Codec ID : A_EAC3

  272. Duration : 1 h 50 min

  273. Bit rate mode : Constant

  274. Bit rate : 640 kb/s

  275. Channel(s) : 6 channels

  276. Channel layout : L R C LFE Ls Rs

  277. Sampling rate : 48.0 kHz

  278. Frame rate : 31.250 FPS (1536 SPF)

  279. Compression mode : Lossy

  280. Stream size : 505 MiB (4%)

  281. Title : Brazilian Portuguese

  282. Language : Portuguese

  283. Service kind : Complete Main

  284. Default : No

  285. Forced : No


  286. Audio #13

  287. ID : 14

  288. Format : E-AC-3

  289. Format/Info : Enhanced AC-3

  290. Commercial name : Dolby Digital Plus

  291. Codec ID : A_EAC3

  292. Duration : 1 h 50 min

  293. Bit rate mode : Constant

  294. Bit rate : 640 kb/s

  295. Channel(s) : 6 channels

  296. Channel layout : L R C LFE Ls Rs

  297. Sampling rate : 48.0 kHz

  298. Frame rate : 31.250 FPS (1536 SPF)

  299. Compression mode : Lossy

  300. Stream size : 505 MiB (4%)

  301. Title : Russian

  302. Language : Russian

  303. Service kind : Complete Main

  304. Default : No

  305. Forced : No


  306. Audio #14

  307. ID : 15

  308. Format : E-AC-3

  309. Format/Info : Enhanced AC-3

  310. Commercial name : Dolby Digital Plus

  311. Codec ID : A_EAC3

  312. Duration : 1 h 50 min

  313. Bit rate mode : Constant

  314. Bit rate : 640 kb/s

  315. Channel(s) : 6 channels

  316. Channel layout : L R C LFE Ls Rs

  317. Sampling rate : 48.0 kHz

  318. Frame rate : 31.250 FPS (1536 SPF)

  319. Compression mode : Lossy

  320. Stream size : 505 MiB (4%)

  321. Title : Spanish

  322. Language : Spanish

  323. Service kind : Complete Main

  324. Default : No

  325. Forced : No


  326. Audio #15

  327. ID : 16

  328. Format : E-AC-3

  329. Format/Info : Enhanced AC-3

  330. Commercial name : Dolby Digital Plus

  331. Codec ID : A_EAC3

  332. Duration : 1 h 50 min

  333. Bit rate mode : Constant

  334. Bit rate : 640 kb/s

  335. Channel(s) : 6 channels

  336. Channel layout : L R C LFE Ls Rs

  337. Sampling rate : 48.0 kHz

  338. Frame rate : 31.250 FPS (1536 SPF)

  339. Compression mode : Lossy

  340. Stream size : 505 MiB (4%)

  341. Title : European Spanish

  342. Language : Spanish

  343. Service kind : Complete Main

  344. Default : No

  345. Forced : No


  346. Audio #16

  347. ID : 17

  348. Format : E-AC-3

  349. Format/Info : Enhanced AC-3

  350. Commercial name : Dolby Digital Plus

  351. Codec ID : A_EAC3

  352. Duration : 1 h 50 min

  353. Bit rate mode : Constant

  354. Bit rate : 640 kb/s

  355. Channel(s) : 6 channels

  356. Channel layout : L R C LFE Ls Rs

  357. Sampling rate : 48.0 kHz

  358. Frame rate : 31.250 FPS (1536 SPF)

  359. Compression mode : Lossy

  360. Stream size : 505 MiB (4%)

  361. Title : Swedish

  362. Language : Swedish

  363. Service kind : Complete Main

  364. Default : No

  365. Forced : No


  366. Audio #17

  367. ID : 18

  368. Format : E-AC-3

  369. Format/Info : Enhanced AC-3

  370. Commercial name : Dolby Digital Plus

  371. Codec ID : A_EAC3

  372. Duration : 1 h 50 min

  373. Bit rate mode : Constant

  374. Bit rate : 640 kb/s

  375. Channel(s) : 6 channels

  376. Channel layout : L R C LFE Ls Rs

  377. Sampling rate : 48.0 kHz

  378. Frame rate : 31.250 FPS (1536 SPF)

  379. Compression mode : Lossy

  380. Stream size : 505 MiB (4%)

  381. Title : Thai

  382. Language : Thai

  383. Service kind : Complete Main

  384. Default : No

  385. Forced : No


  386. Audio #18

  387. ID : 19

  388. Format : E-AC-3

  389. Format/Info : Enhanced AC-3

  390. Commercial name : Dolby Digital Plus

  391. Codec ID : A_EAC3

  392. Duration : 1 h 50 min

  393. Bit rate mode : Constant

  394. Bit rate : 640 kb/s

  395. Channel(s) : 6 channels

  396. Channel layout : L R C LFE Ls Rs

  397. Sampling rate : 48.0 kHz

  398. Frame rate : 31.250 FPS (1536 SPF)

  399. Compression mode : Lossy

  400. Stream size : 505 MiB (4%)

  401. Title : Turkish

  402. Language : Turkish

  403. Service kind : Complete Main

  404. Default : No

  405. Forced : No


  406. Audio #19

  407. ID : 20

  408. Format : E-AC-3

  409. Format/Info : Enhanced AC-3

  410. Commercial name : Dolby Digital Plus

  411. Codec ID : A_EAC3

  412. Duration : 1 h 50 min

  413. Bit rate mode : Constant

  414. Bit rate : 640 kb/s

  415. Channel(s) : 6 channels

  416. Channel layout : L R C LFE Ls Rs

  417. Sampling rate : 48.0 kHz

  418. Frame rate : 31.250 FPS (1536 SPF)

  419. Compression mode : Lossy

  420. Stream size : 505 MiB (4%)

  421. Title : Ukrainian

  422. Language : Ukrainian

  423. Service kind : Complete Main

  424. Default : No

  425. Forced : No


  426. Text #1

  427. ID : 21

  428. Format : UTF-8

  429. Codec ID : S_TEXT/UTF8

  430. Codec ID/Info : UTF-8 Plain Text

  431. Duration : 1 h 45 min

  432. Bit rate : 75 b/s

  433. Count of elements : 1442

  434. Stream size : 58.5 KiB (0%)

  435. Title : English

  436. Language : English

  437. Default : Yes

  438. Forced : No


  439. Text #2

  440. ID : 22

  441. Format : UTF-8

  442. Codec ID : S_TEXT/UTF8

  443. Codec ID/Info : UTF-8 Plain Text

  444. Duration : 1 h 47 min

  445. Bit rate : 60 b/s

  446. Count of elements : 911

  447. Stream size : 47.7 KiB (0%)

  448. Title : Arabic

  449. Language : Arabic

  450. Default : No

  451. Forced : No


  452. Text #3

  453. ID : 23

  454. Format : UTF-8

  455. Codec ID : S_TEXT/UTF8

  456. Codec ID/Info : UTF-8 Plain Text

  457. Duration : 1 h 47 min

  458. Bit rate : 33 b/s

  459. Count of elements : 909

  460. Stream size : 26.3 KiB (0%)

  461. Title : Chinese Simplified

  462. Language : Chinese

  463. Default : No

  464. Forced : No


  465. Text #4

  466. ID : 24

  467. Format : UTF-8

  468. Codec ID : S_TEXT/UTF8

  469. Codec ID/Info : UTF-8 Plain Text

  470. Duration : 1 h 47 min

  471. Bit rate : 35 b/s

  472. Count of elements : 920

  473. Stream size : 28.4 KiB (0%)

  474. Title : Chinese Traditional

  475. Language : Chinese

  476. Default : No

  477. Forced : No


  478. Text #5

  479. ID : 25

  480. Format : UTF-8

  481. Codec ID : S_TEXT/UTF8

  482. Codec ID/Info : UTF-8 Plain Text

  483. Duration : 1 h 47 min

  484. Bit rate : 31 b/s

  485. Count of elements : 894

  486. Stream size : 24.6 KiB (0%)

  487. Title : Croatian

  488. Language : Croatian

  489. Default : No

  490. Forced : No


  491. Text #6

  492. ID : 26

  493. Format : UTF-8

  494. Codec ID : S_TEXT/UTF8

  495. Codec ID/Info : UTF-8 Plain Text

  496. Duration : 1 h 47 min

  497. Bit rate : 34 b/s

  498. Count of elements : 879

  499. Stream size : 27.3 KiB (0%)

  500. Title : Czech

  501. Language : Czech

  502. Default : No

  503. Forced : No


  504. Text #7

  505. ID : 27

  506. Format : UTF-8

  507. Codec ID : S_TEXT/UTF8

  508. Codec ID/Info : UTF-8 Plain Text

  509. Duration : 1 h 47 min

  510. Bit rate : 34 b/s

  511. Count of elements : 829

  512. Stream size : 27.0 KiB (0%)

  513. Title : Danish

  514. Language : Danish

  515. Default : No

  516. Forced : No


  517. Text #8

  518. ID : 28

  519. Format : UTF-8

  520. Codec ID : S_TEXT/UTF8

  521. Codec ID/Info : UTF-8 Plain Text

  522. Duration : 1 h 47 min

  523. Bit rate : 30 b/s

  524. Count of elements : 826

  525. Stream size : 24.0 KiB (0%)

  526. Title : Dutch

  527. Language : Dutch

  528. Default : No

  529. Forced : No


  530. Text #9

  531. ID : 29

  532. Format : UTF-8

  533. Codec ID : S_TEXT/UTF8

  534. Codec ID/Info : UTF-8 Plain Text

  535. Duration : 1 h 47 min

  536. Bit rate : 33 b/s

  537. Count of elements : 836

  538. Stream size : 26.3 KiB (0%)

  539. Title : Finnish

  540. Language : Finnish

  541. Default : No

  542. Forced : No


  543. Text #10

  544. ID : 30

  545. Format : UTF-8

  546. Codec ID : S_TEXT/UTF8

  547. Codec ID/Info : UTF-8 Plain Text

  548. Duration : 1 h 47 min

  549. Bit rate : 35 b/s

  550. Count of elements : 864

  551. Stream size : 28.2 KiB (0%)

  552. Title : French

  553. Language : French

  554. Default : No

  555. Forced : No


  556. Text #11

  557. ID : 31

  558. Format : UTF-8

  559. Codec ID : S_TEXT/UTF8

  560. Codec ID/Info : UTF-8 Plain Text

  561. Duration : 1 h 47 min

  562. Bit rate : 35 b/s

  563. Count of elements : 860

  564. Stream size : 28.1 KiB (0%)

  565. Title : German

  566. Language : German

  567. Default : No

  568. Forced : No


  569. Text #12

  570. ID : 32

  571. Format : UTF-8

  572. Codec ID : S_TEXT/UTF8

  573. Codec ID/Info : UTF-8 Plain Text

  574. Duration : 1 h 47 min

  575. Bit rate : 59 b/s

  576. Count of elements : 906

  577. Stream size : 46.8 KiB (0%)

  578. Title : Greek

  579. Language : Greek

  580. Default : No

  581. Forced : No


  582. Text #13

  583. ID : 33

  584. Format : UTF-8

  585. Codec ID : S_TEXT/UTF8

  586. Codec ID/Info : UTF-8 Plain Text

  587. Duration : 1 h 47 min

  588. Bit rate : 57 b/s

  589. Count of elements : 910

  590. Stream size : 45.1 KiB (0%)

  591. Title : Hebrew

  592. Language : Hebrew

  593. Default : No

  594. Forced : No


  595. Text #14

  596. ID : 34

  597. Format : UTF-8

  598. Codec ID : S_TEXT/UTF8

  599. Codec ID/Info : UTF-8 Plain Text

  600. Duration : 1 h 47 min

  601. Bit rate : 33 b/s

  602. Count of elements : 854

  603. Stream size : 26.6 KiB (0%)

  604. Title : Hungarian

  605. Language : Hungarian

  606. Default : No

  607. Forced : No


  608. Text #15

  609. ID : 35

  610. Format : UTF-8

  611. Codec ID : S_TEXT/UTF8

  612. Codec ID/Info : UTF-8 Plain Text

  613. Duration : 1 h 47 min

  614. Bit rate : 34 b/s

  615. Count of elements : 907

  616. Stream size : 27.5 KiB (0%)

  617. Title : Indonesian

  618. Language : Indonesian

  619. Default : No

  620. Forced : No


  621. Text #16

  622. ID : 36

  623. Format : UTF-8

  624. Codec ID : S_TEXT/UTF8

  625. Codec ID/Info : UTF-8 Plain Text

  626. Duration : 1 h 47 min

  627. Bit rate : 33 b/s

  628. Count of elements : 867

  629. Stream size : 26.6 KiB (0%)

  630. Title : Italian

  631. Language : Italian

  632. Default : No

  633. Forced : No


  634. Text #17

  635. ID : 37

  636. Format : UTF-8

  637. Codec ID : S_TEXT/UTF8

  638. Codec ID/Info : UTF-8 Plain Text

  639. Duration : 1 h 47 min

  640. Bit rate : 29 b/s

  641. Count of elements : 898

  642. Stream size : 23.6 KiB (0%)

  643. Title : Japanese

  644. Language : Japanese

  645. Default : No

  646. Forced : No


  647. Text #18

  648. ID : 38

  649. Format : UTF-8

  650. Codec ID : S_TEXT/UTF8

  651. Codec ID/Info : UTF-8 Plain Text

  652. Duration : 1 h 47 min

  653. Bit rate : 43 b/s

  654. Count of elements : 973

  655. Stream size : 34.3 KiB (0%)

  656. Title : Korean

  657. Language : Korean

  658. Default : No

  659. Forced : No


  660. Text #19

  661. ID : 39

  662. Format : UTF-8

  663. Codec ID : S_TEXT/UTF8

  664. Codec ID/Info : UTF-8 Plain Text

  665. Duration : 1 h 47 min

  666. Bit rate : 34 b/s

  667. Count of elements : 908

  668. Stream size : 27.0 KiB (0%)

  669. Title : Malay

  670. Language : Malay

  671. Default : No

  672. Forced : No


  673. Text #20

  674. ID : 40

  675. Format : UTF-8

  676. Codec ID : S_TEXT/UTF8

  677. Codec ID/Info : UTF-8 Plain Text

  678. Duration : 1 h 47 min

  679. Bit rate : 36 b/s

  680. Count of elements : 787

  681. Stream size : 28.6 KiB (0%)

  682. Title : Norwegian Bokmal

  683. Language : Norwegian Bokmal

  684. Default : No

  685. Forced : No


  686. Text #21

  687. ID : 41

  688. Format : UTF-8

  689. Codec ID : S_TEXT/UTF8

  690. Codec ID/Info : UTF-8 Plain Text

  691. Duration : 1 h 47 min

  692. Bit rate : 33 b/s

  693. Count of elements : 933

  694. Stream size : 26.7 KiB (0%)

  695. Title : Polish

  696. Language : Polish

  697. Default : No

  698. Forced : No


  699. Text #22

  700. ID : 42

  701. Format : UTF-8

  702. Codec ID : S_TEXT/UTF8

  703. Codec ID/Info : UTF-8 Plain Text

  704. Duration : 1 h 47 min

  705. Bit rate : 34 b/s

  706. Count of elements : 892

  707. Stream size : 26.9 KiB (0%)

  708. Title : Portuguese

  709. Language : Portuguese

  710. Default : No

  711. Forced : No


  712. Text #23

  713. ID : 43

  714. Format : UTF-8

  715. Codec ID : S_TEXT/UTF8

  716. Codec ID/Info : UTF-8 Plain Text

  717. Duration : 1 h 47 min

  718. Bit rate : 34 b/s

  719. Count of elements : 905

  720. Stream size : 27.4 KiB (0%)

  721. Title : Brazilian Portuguese

  722. Language : Portuguese

  723. Default : No

  724. Forced : No


  725. Text #24

  726. ID : 44

  727. Format : UTF-8

  728. Codec ID : S_TEXT/UTF8

  729. Codec ID/Info : UTF-8 Plain Text

  730. Duration : 1 h 42 min

  731. Bit rate : 38 b/s

  732. Count of elements : 836

  733. Stream size : 29.2 KiB (0%)

  734. Title : Romanian

  735. Language : Romanian

  736. Default : No

  737. Forced : No


  738. Text #25

  739. ID : 45

  740. Format : UTF-8

  741. Codec ID : S_TEXT/UTF8

  742. Codec ID/Info : UTF-8 Plain Text

  743. Duration : 1 h 47 min

  744. Bit rate : 60 b/s

  745. Count of elements : 906

  746. Stream size : 47.5 KiB (0%)

  747. Title : Russian

  748. Language : Russian

  749. Default : No

  750. Forced : No


  751. Text #26

  752. ID : 46

  753. Format : UTF-8

  754. Codec ID : S_TEXT/UTF8

  755. Codec ID/Info : UTF-8 Plain Text

  756. Duration : 1 h 47 min

  757. Bit rate : 34 b/s

  758. Count of elements : 904

  759. Stream size : 26.9 KiB (0%)

  760. Title : Spanish

  761. Language : Spanish

  762. Default : No

  763. Forced : No


  764. Text #27

  765. ID : 47

  766. Format : UTF-8

  767. Codec ID : S_TEXT/UTF8

  768. Codec ID/Info : UTF-8 Plain Text

  769. Duration : 1 h 47 min

  770. Bit rate : 34 b/s

  771. Count of elements : 871

  772. Stream size : 27.0 KiB (0%)

  773. Title : European Spanish

  774. Language : Spanish

  775. Default : No

  776. Forced : No


  777. Text #28

  778. ID : 48

  779. Format : UTF-8

  780. Codec ID : S_TEXT/UTF8

  781. Codec ID/Info : UTF-8 Plain Text

  782. Duration : 1 h 47 min

  783. Bit rate : 33 b/s

  784. Count of elements : 817

  785. Stream size : 26.7 KiB (0%)

  786. Title : Swedish

  787. Language : Swedish

  788. Default : No

  789. Forced : No


  790. Text #29

  791. ID : 49

  792. Format : UTF-8

  793. Codec ID : S_TEXT/UTF8

  794. Codec ID/Info : UTF-8 Plain Text

  795. Duration : 1 h 47 min

  796. Bit rate : 89 b/s

  797. Count of elements : 911

  798. Stream size : 70.7 KiB (0%)

  799. Title : Thai

  800. Language : Thai

  801. Default : No

  802. Forced : No


  803. Text #30

  804. ID : 50

  805. Format : UTF-8

  806. Codec ID : S_TEXT/UTF8

  807. Codec ID/Info : UTF-8 Plain Text

  808. Duration : 1 h 47 min

  809. Bit rate : 35 b/s

  810. Count of elements : 802

  811. Stream size : 27.8 KiB (0%)

  812. Title : Turkish

  813. Language : Turkish

  814. Default : No

  815. Forced : No


  816. Text #31

  817. ID : 51

  818. Format : UTF-8

  819. Codec ID : S_TEXT/UTF8

  820. Codec ID/Info : UTF-8 Plain Text

  821. Duration : 1 h 47 min

  822. Bit rate : 55 b/s

  823. Count of elements : 912

  824. Stream size : 44.1 KiB (0%)

  825. Title : Ukrainian

  826. Language : Ukrainian

  827. Default : No

  828. Forced : No


  829. Text #32

  830. ID : 52

  831. Format : UTF-8

  832. Codec ID : S_TEXT/UTF8

  833. Codec ID/Info : UTF-8 Plain Text

  834. Duration : 1 h 47 min

  835. Bit rate : 50 b/s

  836. Count of elements : 903

  837. Stream size : 39.7 KiB (0%)

  838. Title : Vietnamese

  839. Language : Vietnamese

  840. Default : No

  841. Forced : No


文件下载


除非特别注明,本文『甜心女孩[中文字幕].Sweet.Girl.2021.1080p.HDR.NF.WEB-DL.DDP5.1.Atmos.HEVC 13.62GB』来源于互联网机器人自动抓取,非本站原创。 浮游电影网不对本文拥有版权,如有侵犯,请联系邮箱:fuyouu#yandex.com[#换成@]投诉。我们会在15个工作日内删除。 但烦请转载时请标明出处:“本文转载于『浮游电影网』,原文地址:https://www.fuyouu.com/13927.html

评论吧骚年!

发表你的见解   

昵称*

E-mail*(建议输入,以便收到博主回复的提示邮件)

验证码*

您可以使用eMule或eMule Mod(Windows)、aMule(Win、Linux、Mac)等软件下载eD2k链接。。
eMule收藏集(.emulecollection)文件是您选中的所有链接的列表文件。eMule可以直接下载它们。
按住SHIFT键选择可以选中多个选择框。
可用文件名和大小选择器来选择文件。
文件名选择器帮您根据文件名称或后缀来选择文件。不分大小写。
符号使用:
和:空格( )、+
不包含:-
或:|
转义:一对英文引号("");
匹配开头:^
匹配结尾:$
例如:
选中所有名称中包含有“eMule”或“0.49c”字眼,但不包含有“exe”字眼的:emule|0.49c -exe
选中所有名称的开头是“eMule”,结尾是“0.49c”的:^emule 0.49c$
选中所有名称中带有“eMule 0.49c”的(必须是“eMule 0.49c”,中间没有别的字符,不能是“eMule fake 0.49c”),需要转义:"emule 0.49c"
大小选择器帮您根据文件大小选择文件。