当前位置: 首页 >> 国产电影 >> 黄飞鸿之四:王者之风[国粤语音轨/简繁字幕].Once.Upon.a.Time.in.China.IV.1993.NF.WEB-DL.1080p.H.264 5.15GB >> 正文

黄飞鸿之四:王者之风[国粤语音轨/简繁字幕].Once.Upon.a.Time.in.China.IV.1993.NF.WEB-DL.1080p.H.264 5.15GB

2021年08月25日 12:04:02     电影发布:来源于网络     电影分类:国产电影     评论(0)    

黄飞鸿之四:王者之风[国粤语音轨/简繁字幕].Once.Upon.a.Time.in.China.IV.1993.NF.WEB DL.1080p.H.264 5.15GB 武侠片 古装片 动作片 国产电影  第1张

◎译 名 黄飞鸿之四:王者之风 / 黄飞鸿之王者之风 / Once Upon a Time in China IV

◎片 名 黃飛鴻之四王者之風

◎年 代 1993

◎产 地 中国大陆 / 中国香港

◎类 别 动作 / 武侠 / 古装

◎语 言 粤语 / 汉语普通话

◎上映日期 1993-06-10(中国香港)

◎IMDb链接 https://www.imdb.com/title/tt0107162/

◎豆瓣评分 7.1/10 (22872人评价)

◎豆瓣链接 https://movie.douban.com/subject/1294011/

◎片 长 102分钟

◎导 演 元彬 Bun Yuen (id:1278657)

◎编 剧 徐克 Hark Tsui (id:1007152)

邓碧燕 Elsa Tang (id:1321260)

◎演 员 赵文卓 Man Cheuk Chiu (id:1000526)

王静莹 Jane Wang (id:1274668)

莫少聪 Siu Chung Mok (id:1037846)

熊欣欣 Xinxin Xiong (id:1033090)

周比利 Billy Chow (id:1050501)

钱嘉乐 Kar Lok Chin (id:1025476)

刘洵 Shun Lau (id:1274304)

林志泰 Chi Tai Lam (id:1433961)

王菁华 Jinghua Wang (id:1322293)

陈继铭 Jiming Chen (id:1318452)

鲁亦诗 Louis Roth (id:1321259)

徐克 Hark Tsui (id:1007152)

成志谷 Zhigu Cheng (id:1412715)

吴思远 See-Yuen Ng (id:1293125)

胡伟立 Wai Lap Wu (id:1275249)

黄岳泰 Arthur Wong (id:1301185)

刘春福 Chunfu Liu (id:1401958)

麦子善 Marco Mak (id:1280638)

侯荣恒 Rongheng Hou (id:1403099)

林峰 Feng Lin (id:1322676)

周少龙 Shao Lung Chou (id:1344862)

邹文怀 Raymond Chow (id:1016883)

◎标 签 香港 / 动作 / 武侠 / 徐克 / 黄飞鸿 / 功夫 / 1993 / 古装

◎简 介

黄飞鸿(赵文卓 饰)夺得狮王争霸金牌后飘然而去,一时间广东会馆高朋云集纷纷做贺,八旗将军府副都统阿兰成都(陈继铭 饰)大人登门拜访,原来八国联军欲使用各自的巨型赛狮挑战清廷,为维护国体,黄飞鸿决定出战与阿兰将军共赴国难。梁宽(莫少聪 饰)再度惹下事端被黄飞鸿驱逐,无奈只得与鬼脚七(熊欣欣 饰)等找到在北京办报的十四姨(王静莹 饰)求助,黄飞鸿亦赶到报馆,却与十四姨卷入了红灯照在租界内屠杀洋人的事端,黄飞鸿出手救人,与红灯照大师姐苗三娘(王菁华 饰)一同被德国兵士关押拷打。越狱而出的黄飞鸿从红灯照手中救出了众亲人,然而却因此错过了赛狮,阿兰成都将军孤身战死。黄飞鸿为国为友,满腔豪情二次挑战八国巨狮……

  1. ##### MediaInfo ######

  2. General

  3. Unique ID : 133357796017959590737309137689423892835 (0x6453C6FAF5C9877417124F2DB76FD163)

  4. Complete name : Once.Upon.a.Time.in.China.IV.1993.NF.WEB-DL.1080p.H.264.AAC&DD.2.0.2Audios-10015@BBQDDQ.COM.mkv

  5. Format : Matroska

  6. Format version : Version 4

  7. File size : 5.15 GiB

  8. Duration : 1 h 41 min

  9. Overall bit rate mode : Variable

  10. Overall bit rate : 7 258 kb/s

  11. Encoded date : UTC 2021-08-22 21:15:31

  12. Writing application : mkvmerge v58.0.0 ('Supper's Ready') 64-bit

  13. Writing library : libebml v1.4.2 + libmatroska v1.6.4


  14. Video

  15. ID : 1

  16. Format : AVC

  17. Format/Info : Advanced Video Codec

  18. Format profile : High@L4

  19. Format settings : CABAC / 4 Ref Frames

  20. Format settings, CABAC : Yes

  21. Format settings, Reference frames : 4 frames

  22. Codec ID : V_MPEG4/ISO/AVC

  23. Duration : 1 h 41 min

  24. Bit rate mode : Variable

  25. Bit rate : 6 680 kb/s

  26. Maximum bit rate : 20.0 Mb/s

  27. Width : 1 920 pixels

  28. Height : 1 080 pixels

  29. Display aspect ratio : 16:9

  30. Frame rate mode : Constant

  31. Frame rate : 23.976 (24000/1001/53354) FPS

  32. Color space : YUV

  33. Chroma subsampling : 4:2:0

  34. Bit depth : 8 bits

  35. Scan type : Progressive

  36. Bits/(Pixel*Frame) : 0.134

  37. Stream size : 4.74 GiB (92%)

  38. Writing library : x264 core 148 r2715 7e75228

  39. Encoding settings : cabac=1 / ref=4 / deblock=1:0:0 / analyse=0x3:0x111 / me=umh / subme=10 / psy=1 / psy_rd=1.00:0.00 / mixed_ref=1 / me_range=120 / chroma_me=1 / trellis=2 / 8x8dct=1 / cqm=0 / deadzone=21,11 / fast_pskip=1 / chroma_qp_offset=-2 / threads=6 / lookahead_threads=1 / sliced_threads=0 / nr=0 / decimate=1 / interlaced=0 / NTMzNTQ= / bluray_compat=0 / stitchable=1 / constrained_intra=0 / bframes=16 / b_pyramid=2 / b_adapt=2 / b_bias=0 / direct=3 / weightb=1 / open_gop=0 / weightp=2 / keyint=240 / keyint_min=121 / scenecut=0 / intra_refresh=0 / rc_lookahead=240 / rc=crf / mbtree=1 / crf=16.0 / qcomp=0.50 / qpmin=6 / qpmax=51 / qpstep=4 / vbv_maxrate=20000 / vbv_bufsize=25000 / crf_max=0.0 / nal_hrd=vbr / filler=0 / NTMzNTQ=LmsMAP37EqsCpk / ip_ratio=1.40 / aq=1:0.80

  40. Default : Yes

  41. Forced : No


  42. Audio #1

  43. ID : 2

  44. Format : AAC LC SBR

  45. Format/Info : Advanced Audio Codec Low Complexity with Spectral Band Replication

  46. Commercial name : HE-AAC

  47. Format settings : Explicit

  48. Codec ID : A_AAC-2

  49. Duration : 1 h 41 min

  50. Bit rate : 128 kb/s

  51. Channel(s) : 2 channels

  52. Channel layout : L R

  53. Sampling rate : 48.0 kHz

  54. Frame rate : 23.438 FPS (2048 SPF)

  55. Compression mode : Lossy

  56. Stream size : 92.9 MiB (2%)

  57. Title : Netflix 粤语

  58. Language : Chinese

  59. Default : Yes

  60. Forced : No


  61. Audio #2

  62. ID : 3

  63. Format : AC-3

  64. Format/Info : Audio Coding 3

  65. Commercial name : Dolby Digital

  66. Codec ID : A_AC3

  67. Duration : 1 h 41 min

  68. Bit rate mode : Constant

  69. Bit rate : 448 kb/s

  70. Channel(s) : 2 channels

  71. Channel layout : L R

  72. Sampling rate : 48.0 kHz

  73. Frame rate : 31.250 FPS (1536 SPF)

  74. Compression mode : Lossy

  75. Stream size : 325 MiB (6%)

  76. Title : LD 国语

  77. Language : Chinese

  78. Service kind : Complete Main

  79. Default : No

  80. Forced : No


  81. Text #1

  82. ID : 4

  83. Format : UTF-8

  84. Codec ID : S_TEXT/UTF8

  85. Codec ID/Info : UTF-8 Plain Text

  86. Duration : 1 h 36 min

  87. Bit rate : 42 b/s

  88. Count of elements : 1043

  89. Stream size : 30.0 KiB (0%)

  90. Title : 简体中文

  91. Language : Chinese

  92. Default : Yes

  93. Forced : No


  94. Text #2

  95. ID : 5

  96. Format : UTF-8

  97. Codec ID : S_TEXT/UTF8

  98. Codec ID/Info : UTF-8 Plain Text

  99. Duration : 1 h 36 min

  100. Bit rate : 42 b/s

  101. Count of elements : 1043

  102. Stream size : 30.0 KiB (0%)

  103. Title : 繁体中文

  104. Language : Chinese

  105. Default : No

  106. Forced : No


文件下载


除非特别注明,本文『黄飞鸿之四:王者之风[国粤语音轨/简繁字幕].Once.Upon.a.Time.in.China.IV.1993.NF.WEB-DL.1080p.H.264 5.15GB』来源于互联网机器人自动抓取,非本站原创。 浮游电影网不对本文拥有版权,如有侵犯,请联系邮箱:fuyouu#yandex.com[#换成@]投诉。我们会在15个工作日内删除。 但烦请转载时请标明出处:“本文转载于『浮游电影网』,原文地址:https://www.fuyouu.com/13903.html

评论吧骚年!

发表你的见解   

昵称*

E-mail*(建议输入,以便收到博主回复的提示邮件)

验证码*

您可以使用eMule或eMule Mod(Windows)、aMule(Win、Linux、Mac)等软件下载eD2k链接。。
eMule收藏集(.emulecollection)文件是您选中的所有链接的列表文件。eMule可以直接下载它们。
按住SHIFT键选择可以选中多个选择框。
可用文件名和大小选择器来选择文件。
文件名选择器帮您根据文件名称或后缀来选择文件。不分大小写。
符号使用:
和:空格( )、+
不包含:-
或:|
转义:一对英文引号("");
匹配开头:^
匹配结尾:$
例如:
选中所有名称中包含有“eMule”或“0.49c”字眼,但不包含有“exe”字眼的:emule|0.49c -exe
选中所有名称的开头是“eMule”,结尾是“0.49c”的:^emule 0.49c$
选中所有名称中带有“eMule 0.49c”的(必须是“eMule 0.49c”,中间没有别的字符,不能是“eMule fake 0.49c”),需要转义:"emule 0.49c"
大小选择器帮您根据文件大小选择文件。