当前位置: 首页 >> 海外电影 >> 艾曼纽[中文字幕].Emmanuelle.1974.1080p.BluRay.x265.10bit.FLAC.2.0 6.95GB >> 正文

艾曼纽[中文字幕].Emmanuelle.1974.1080p.BluRay.x265.10bit.FLAC.2.0 6.95GB

2021年08月25日 11:57:43     电影发布:来源于网络     电影分类:海外电影     评论(0)    

艾曼纽[中文字幕].Emmanuelle.1974.1080p.BluRay.x265.10bit.FLAC.2.0 6.95GB 情色 剧情片 海外电影  第1张

◎译 名 艾曼纽 / 艾曼妞

◎片 名 Emmanuelle

◎年 代 1974

◎产 地 法国

◎类 别 剧情 / 情色

◎语 言 法语

◎上映日期 1974-06-26(法国)

◎IMDb链接 https://www.imdb.com/title/tt0071464/

◎豆瓣评分 6.6/10 (5007人评价)

◎豆瓣链接 https://movie.douban.com/subject/1296869/

◎片 长 105分钟

◎导 演 贾斯特·杰克金 Just Jaeckin (id:1023189)

◎编 剧 让-路易·里夏尔 Jean-Louis Richard (id:1048420)

◎演 员 阿兰·居尼 Alain Cuny (id:1013748)

西尔维娅·克里斯蒂 Sylvia Kristel (id:1027361)

玛莉卡·格林 Marika Green (id:1097669)

丹尼尔·萨基 Daniel Sarky (id:1144338)

让娜·科勒坦 Jeanne Colletin (id:1337908)

克里斯蒂娜·布瓦松 Christine Boisson (id:1000790)

◎标 签 情色 / 法国 / 艾曼妞 / 法国电影 / 文艺 / 艾曼纽 / 1974 / 经典

◎简 介

主人翁艾曼妞原是忠于丈夫的纯情妻子,跟外交官丈夫前往泰国,遇上一群法国老乡。鸳鸯恋她赫然发现那些贵妇人在异国环境下因感生活沉闷而到处留情,她在别人怂恿下也迈出了偷腥的第一步。不料在她丈夫知悉后,不但未予责怪,竟然鼓励她深入探索自己的内心情欲需求,于是她更加肆无忌惮地在曼 谷的大街小巷展开“性之旅”。后来艾曼妞认识了一名当地的性爱大师,在他的引导下终于达到情欲解放的最高境界。

  1. ##### MediaInfo ######

  2. General

  3. Unique ID : 97897128458146107482987442088132061708 (0x49A64D15FC07BC2278AC3E050C89AA0C)

  4. Complete name : Emmanuelle.1974.1080p.BluRay.x265.10bit.FLAC.2.0-10017@BBQDDQ.COM.mkv

  5. Format : Matroska

  6. Format version : Version 4

  7. File size : 6.95 GiB

  8. Duration : 1 h 34 min

  9. Overall bit rate mode : Variable

  10. Overall bit rate : 10.5 Mb/s

  11. Movie name : EMMANUELLE

  12. Encoded date : UTC 2021-08-24 02:23:41

  13. Writing application : mkvmerge v59.0.0 ('Shining Star') 64-bit

  14. Writing library : libebml v1.4.2 + libmatroska v1.6.4

  15. Cover : Yes

  16. Attachments : cover.jpg


  17. Video

  18. ID : 1

  19. Format : HEVC

  20. Format/Info : High Efficiency Video Coding

  21. Format profile : Main 10@L4@Main

  22. Codec ID : V_MPEGH/ISO/HEVC

  23. Duration : 1 h 34 min

  24. Bit rate : 9 665 kb/s

  25. Width : 1 920 pixels

  26. Height : 800 pixels

  27. Display aspect ratio : 2.40:1

  28. Frame rate mode : Constant

  29. Frame rate : 23.976 (24000/1001/53354) FPS

  30. Color space : YUV

  31. Chroma subsampling : 4:2:0

  32. Bit depth : 10 bits

  33. Bits/(Pixel*Frame) : 0.262

  34. Stream size : 6.36 GiB (92%)

  35. Writing library : x265 3.5+2-g2b25c9ba0+45:[Windows][GCC 10.2.0][64 bit] Yuuki 10bit+8bit+12bit

  36. Encoding settings : rc=crf / crf=23.5000 / qcomp=0.60 / qpstep=4 / stats-write=0 / stats-read=0 / no-lossless / no-cu-lossless / aq-mode=3 / aq-strength=0.90 / cbqpoffs=0 / crqpoffs=0 / ipratio=1.40 / pbratio=1.30 / psy-rd=2.00 / psy-rdoq=0.00 / deblock=0:0 / ref=6 / limit-refs=1 / no-limit-modes / bframes=8 / b-adapt=2 / bframe-bias=0 / b-pyramid / b-intra / weightp / weightb / min-keyint=24 / max-keyint=240 / rc-lookahead=24 / gop-lookahead=0 / NTMzNTQ=uuDQuD2mJt9fsCf / scenecut=40 / hist-scenecut=0 / radl=0 / max-cu-size=64 / min-cu-size=8 / me=3 / subme=7 / merange=48 / rdoq-level=0 / rd=4 / rdpenalty=0 / dynamic-rd=0.00 / no-rd-refine / ----- / cutree / sao / no-rect / no-amp / no-open-gop / wpp / no-pmode / no-pme / no-psnr / no-ssim / nr-intra=0 / nr-inter=0 / no-constrained-intra / no-strong-intra-smoothing / max-tu-size=32 / tu-inter-depth=1 / tu-intra-depth=1 / limit-tu=0 / qg-size=32 / qpmax=69 / qpmin=0 / ----- / cpuid=533541049583 / frame-threads=2 / numa-pools=+ / log-level=2 / input-csp=1 / input-res=1920x800 / interlace=0 / level-idc=0 / high-tier=1 / uhd-bd=0 / no-allow-non-conformance / no-repeat-headers / aud / no-hrd / info / hash=0 / no-temporal-layers / lookahead-slices=0 / no-splice / no-intra-refresh / no-ssim-rd / signhide / no-tskip / max-merge=3 / temporal-mvp / no-frame-dup / no-hme / no-analyze-src-pics / no-sao-non-deblock / selective-sao=4 / early-skip / rskip / no-fast-intra / no-tskip-fast / no-splitrd-skip / zone-count=0 / no-strict-cbr / no-rc-grain / no-const-vbv / sar=0 / overscan=0 / videoformat=5 / range=0 / colorprim=2 / transfer=2 / colormatrix=2 / chromaloc=0 / display-window=0 / cll=0,0 / min-luma=0 / max-luma=1023 / log2-max-poc-lsb=8 / vui-timing-info / vui-hrd-info / slices=1 / no-opt-qp-pps / no-opt-ref-list-length-pps / no-multi-pass-opt-rps / scenecut-bias=0.05 / hist-threshold=0.03 / no-opt-cu-delta-qp / no-aq-motion / no-hdr10 / no-hdr10-opt / no-dhdr10-opt / no-idr-recovery-sei / analysis-reuse-level=0 / analysis-save-reuse-level=0 / analysis-load-reuse-level=0 / scale-factor=0 / refine-intra=0 / refine-inter=0 / refine-mv=1 / refine-ctu-distortion=0 / no-limit-sao / ctu-info=0 / no-lowpass-dct / refine-analysis-type=0 / copy-pic=1 / max-ausize-factor=1.0 / no-dynamic-refine / no-single-sei / no-hevc-aq / no-svt / no-field / qp-adaptation-range=1.00 / scenecut-aware-qp=0conformance-window-offsets / right=0 / bottom=0 / NTMzNTQ= / decoder-max-rate=0 / no-vbv-live-multi-pass

  37. Language : English

  38. Default : Yes

  39. Forced : No


  40. Audio #1

  41. ID : 2

  42. Format : FLAC

  43. Format/Info : Free Lossless Audio Codec

  44. Codec ID : A_FLAC

  45. Duration : 1 h 34 min

  46. Bit rate mode : Variable

  47. Bit rate : 420 kb/s

  48. Channel(s) : 2 channels

  49. Channel layout : L R

  50. Sampling rate : 48.0 kHz

  51. Frame rate : 11.719 FPS (4096 SPF)

  52. Bit depth : 16 bits

  53. Compression mode : Lossless

  54. Stream size : 283 MiB (4%)

  55. Writing library : libFLAC 1.2.1 (UTC 2007-09-17)

  56. Language : English

  57. Default : Yes

  58. Forced : No


  59. Audio #2

  60. ID : 3

  61. Format : FLAC

  62. Format/Info : Free Lossless Audio Codec

  63. Codec ID : A_FLAC

  64. Duration : 1 h 34 min

  65. Bit rate mode : Variable

  66. Bit rate : 439 kb/s

  67. Channel(s) : 2 channels

  68. Channel layout : L R

  69. Sampling rate : 48.0 kHz

  70. Frame rate : 11.719 FPS (4096 SPF)

  71. Bit depth : 16 bits

  72. Compression mode : Lossless

  73. Stream size : 296 MiB (4%)

  74. Writing library : libFLAC 1.2.1 (UTC 2007-09-17)

  75. Language : French

  76. Default : No

  77. Forced : No


  78. Text #1

  79. ID : 4

  80. ID in the original source medium : 4611 (0x1203)

  81. Format : PGS

  82. Muxing mode : zlib

  83. Codec ID : S_HDMV/PGS

  84. Codec ID/Info : Picture based subtitle format used on BDs/HD-DVDs

  85. Duration : 1 h 32 min

  86. Bit rate : 17.8 kb/s

  87. Count of elements : 1054

  88. Stream size : 11.8 MiB (0%)

  89. Language : Chinese

  90. Default : Yes

  91. Forced : No

  92. Original source medium : Blu-ray


  93. Text #2

  94. ID : 5

  95. ID in the original source medium : 4610 (0x1202)

  96. Format : PGS

  97. Muxing mode : zlib

  98. Codec ID : S_HDMV/PGS

  99. Codec ID/Info : Picture based subtitle format used on BDs/HD-DVDs

  100. Duration : 1 h 32 min

  101. Bit rate : 17.5 kb/s

  102. Count of elements : 1054

  103. Stream size : 11.6 MiB (0%)

  104. Language : Chinese

  105. Default : No

  106. Forced : No

  107. Original source medium : Blu-ray


  108. Text #3

  109. ID : 6

  110. ID in the original source medium : 4609 (0x1201)

  111. Format : PGS

  112. Muxing mode : zlib

  113. Codec ID : S_HDMV/PGS

  114. Codec ID/Info : Picture based subtitle format used on BDs/HD-DVDs

  115. Duration : 1 h 28 min

  116. Bit rate : 21.3 kb/s

  117. Count of elements : 1322

  118. Stream size : 13.6 MiB (0%)

  119. Language : English

  120. Default : No

  121. Forced : No

  122. Original source medium : Blu-ray


  123. Menu

  124. 00:00:00.000 : 第 01 章

  125. 00:05:51.100 : 第 02 章

  126. 00:13:57.336 : 第 03 章

  127. 00:18:30.484 : 第 04 章

  128. 00:24:43.356 : 第 05 章

  129. 00:30:14.604 : 第 06 章

  130. 00:36:28.728 : 第 07 章

  131. 00:42:41.725 : 第 08 章

  132. 00:49:35.305 : 第 09 章

  133. 00:54:16.211 : 第 10 章

  134. 01:02:04.554 : 第 11 章

  135. 01:07:51.692 : 第 12 章

  136. 01:14:44.146 : 第 13 章

  137. 01:22:29.194 : 第 14 章

  138. 01:28:38.062 : 第 15 章

  139. 01:33:27.476 : 第 16 章


文件下载


除非特别注明,本文『艾曼纽[中文字幕].Emmanuelle.1974.1080p.BluRay.x265.10bit.FLAC.2.0 6.95GB』来源于互联网机器人自动抓取,非本站原创。 浮游电影网不对本文拥有版权,如有侵犯,请联系邮箱:fuyouu#yandex.com[#换成@]投诉。我们会在15个工作日内删除。 但烦请转载时请标明出处:“本文转载于『浮游电影网』,原文地址:https://www.fuyouu.com/13898.html

评论吧骚年!

发表你的见解   

昵称*

E-mail*(建议输入,以便收到博主回复的提示邮件)

验证码*

您可以使用eMule或eMule Mod(Windows)、aMule(Win、Linux、Mac)等软件下载eD2k链接。。
eMule收藏集(.emulecollection)文件是您选中的所有链接的列表文件。eMule可以直接下载它们。
按住SHIFT键选择可以选中多个选择框。
可用文件名和大小选择器来选择文件。
文件名选择器帮您根据文件名称或后缀来选择文件。不分大小写。
符号使用:
和:空格( )、+
不包含:-
或:|
转义:一对英文引号("");
匹配开头:^
匹配结尾:$
例如:
选中所有名称中包含有“eMule”或“0.49c”字眼,但不包含有“exe”字眼的:emule|0.49c -exe
选中所有名称的开头是“eMule”,结尾是“0.49c”的:^emule 0.49c$
选中所有名称中带有“eMule 0.49c”的(必须是“eMule 0.49c”,中间没有别的字符,不能是“eMule fake 0.49c”),需要转义:"emule 0.49c"
大小选择器帮您根据文件大小选择文件。