当前位置: 首页 >> 动画电影 >> 西游记之再世妖王[国语配音/中文字幕].Monkey.King.Reborn.2021.2160p.WEB-DL.H265.AAC 10.26GB >> 正文

西游记之再世妖王[国语配音/中文字幕].Monkey.King.Reborn.2021.2160p.WEB-DL.H265.AAC 10.26GB

2021年08月24日 21:15:36     电影发布:来源于网络     电影分类:动画电影     评论(0)    

西游记之再世妖王[国语配音/中文字幕].Monkey.King.Reborn.2021.2160p.WEB DL.H265.AAC 10.26GB 奇幻片 动画片 动作片 动画电影  第1张

◎译 名 西游记之再世妖王 / 西游记之人参果 / Monkey King Reborn

◎年 代 2021

◎产 地 中国大陆

◎类 别 动作 / 动画 / 奇幻

◎语 言 汉语普通话

◎上映日期 2021-04-02(中国大陆) / 2021-08-07(中国大陆重映)

◎IMDb链接 https://www.imdb.com/title/tt14391088/

◎豆瓣评分 5.4/10 (9813人评价)

◎豆瓣链接 https://movie.douban.com/subject/26818326/

◎片 长 95分钟

◎导 演 王云飞 Yunfei Wang (id:1321732)

◎编 剧 吴晓宇 Xiaoyu Wu (id:1355173)

王云飞 Yunfei Wang (id:1321732)

◎演 员 边江 Jiang Bian (id:1339972)

张磊 Lei Zhang (id:1340809)

蔡海婷 Haiting Cai (id:1454097)

苏尚卿 Shangqing Su (id:1359405)

张赫 He Zhang (id:1406312)

林强 Qiang Lin (id:1340112)

刘思岑 Sicen Liu (id:1332875)

王晨光 Chenguang Wang (id:1385999)

宝木中阳 Ming Song (id:1334350)

章斌 Bin Zhang (id:1408943)

常进 Jin Chang (id:1454099)

图特哈蒙 Sheng Feng (id:1343032)

张遥函 Yaohan Zhang (id:1384029)

白雪岑 Xuecen Bai (id:1360429)

邱秋 Qiu Qiu (id:1384857)

常文涛 Wentao Chang (id:1454100)

李嘉祥 Jiaxiang Li (id:1454101)

王海峰 Hoifung Wong (id:1382273)

◎标 签 国漫 / 齐天大圣 / 西游 / 神话 / 中国大陆 / 奇幻 / 古风 / 2021

◎简 介

混沌初开之时,世上的第一只妖降世,名元蒂(张磊 配音),被奉为妖祖。千百万年后,昔日妖王孙悟空(边江 配音)被唐僧(苏尚卿 饰)从五行山下救出,悟空答应保护唐僧,前往西天取经。而传说中的妖祖元蒂再次现世,三界岌岌可危。两代妖王注定终极一战,但这次,孙悟空遇上了真正的劲敌。

  1. ##### MediaInfo ######

  2. General

  3. Complete name : 西游记之再世妖王.Monkey.King.Reborn.2021.2160p.WEB-DL.H265.AAC-10003@BBQDDQ.COM.mp4

  4. Format : MPEG-4

  5. Format profile : Base Media

  6. Codec ID : isom (isom/iso2/mp41)

  7. File size : 10.3 GiB

  8. Duration : 1 h 35 min

  9. Overall bit rate : 15.4 Mb/s

  10. Writing application : Lavf58.32.104


  11. Video

  12. ID : 1

  13. Format : HEVC

  14. Format/Info : High Efficiency Video Coding

  15. Format profile : Main@L5@Main

  16. Codec ID : hev1

  17. Codec ID/Info : High Efficiency Video Coding

  18. Duration : 1 h 35 min

  19. Bit rate : 15.2 Mb/s

  20. Width : 3 840 pixels

  21. Height : 1 608 pixels

  22. Display aspect ratio : 2.40:1

  23. Frame rate mode : Constant

  24. Frame rate : 24.000 FPS

  25. Color space : YUV

  26. Chroma subsampling : 4:2:0

  27. Bit depth : 8 bits

  28. Bits/(Pixel*Frame) : 0.103

  29. Stream size : 10.1 GiB (99%)

  30. Codec configuration box : hvcC


  31. Audio

  32. ID : 2

  33. Format : AAC LC

  34. Format/Info : Advanced Audio Codec Low Complexity

  35. Codec ID : mp4a-40-2

  36. Duration : 1 h 35 min

  37. Bit rate mode : Constant

  38. Bit rate : 192 kb/s

  39. Channel(s) : 2 channels

  40. Channel layout : L R

  41. Sampling rate : 44.1 kHz

  42. Frame rate : 43.066 FPS (1024 SPF)

  43. Compression mode : Lossy

  44. Stream size : 129 MiB (1%)

  45. Default : Yes

  46. Alternate group : 1


文件下载


除非特别注明,本文『西游记之再世妖王[国语配音/中文字幕].Monkey.King.Reborn.2021.2160p.WEB-DL.H265.AAC 10.26GB』来源于互联网机器人自动抓取,非本站原创。 浮游电影网不对本文拥有版权,如有侵犯,请联系邮箱:fuyouu#yandex.com[#换成@]投诉。我们会在15个工作日内删除。 但烦请转载时请标明出处:“本文转载于『浮游电影网』,原文地址:https://www.fuyouu.com/13895.html

评论吧骚年!

发表你的见解   

昵称*

E-mail*(建议输入,以便收到博主回复的提示邮件)

验证码*

您可以使用eMule或eMule Mod(Windows)、aMule(Win、Linux、Mac)等软件下载eD2k链接。。
eMule收藏集(.emulecollection)文件是您选中的所有链接的列表文件。eMule可以直接下载它们。
按住SHIFT键选择可以选中多个选择框。
可用文件名和大小选择器来选择文件。
文件名选择器帮您根据文件名称或后缀来选择文件。不分大小写。
符号使用:
和:空格( )、+
不包含:-
或:|
转义:一对英文引号("");
匹配开头:^
匹配结尾:$
例如:
选中所有名称中包含有“eMule”或“0.49c”字眼,但不包含有“exe”字眼的:emule|0.49c -exe
选中所有名称的开头是“eMule”,结尾是“0.49c”的:^emule 0.49c$
选中所有名称中带有“eMule 0.49c”的(必须是“eMule 0.49c”,中间没有别的字符,不能是“eMule fake 0.49c”),需要转义:"emule 0.49c"
大小选择器帮您根据文件大小选择文件。