当前位置: 首页 >> 欧美电影 >> 人类清除计划3[简繁字幕].The.Purge.Election.Year.2016.BluRay.1080p.X265.10bit.DTS 6.86GB >> 正文

人类清除计划3[简繁字幕].The.Purge.Election.Year.2016.BluRay.1080p.X265.10bit.DTS 6.86GB

2021年08月24日 11:20:28     电影发布:来源于网络     电影分类:欧美电影     评论(0)    

人类清除计划3[简繁字幕].The.Purge.Election.Year.2016.BluRay.1080p.X265.10bit.DTS 6.86GB 科幻片 犯罪片 惊悚片 欧美电影  第1张

◎译 名 人类清除计划3 / 国定杀戮日:大选狂屠(港) / 国定杀戮日:大选之年(台) / 人类清除计划:无法无天 / The Purge 3 / 新人类清除计划

◎片 名 The Purge: Election Year

◎年 代 2016

◎产 地 美国

◎类 别 科幻 / 惊悚 / 犯罪

◎语 言 英语 / 俄语

◎上映日期 2016-07-01(美国)

◎IMDb链接 https://www.imdb.com/title/tt4094724/

◎豆瓣评分 6.3/10 (32586人评价)

◎豆瓣链接 https://movie.douban.com/subject/26101255/

◎片 长 109分钟

◎导 演 詹姆斯·德莫纳克 James DeMonaco (id:1282226)

◎编 剧 詹姆斯·德莫纳克 James DeMonaco (id:1282226)

◎演 员 弗兰克·格里罗 Frank Grillo (id:1100321)

伊丽莎白·米切尔 Elizabeth Mitchell (id:1000017)

麦凯尔泰·威廉逊 Mykelti Williamson (id:1031912)

约瑟夫·朱利安·索里亚 Joseph Julian Soria (id:1332389)

贝蒂·加布里埃尔 Betty Gabriel (id:1360187)

艾德文·霍德吉 Edwin Hodge (id:1004934)

凯尔·赛科特 Kyle Secor (id:1055948)

莉莎·科伦-扎亚斯 Liza Colón-Zayas (id:1334989)

伊桑·菲利普斯 Ethan Phillips (id:1007062)

亚当·康托尔 Adam Cantor (id:1258689)

朗顿·豪尔 London Hall (id:1359660)

凯文·德科斯泰 Kevin DeCoste (id:1250978)

杰伊·赫农 Jay Hieron (id:1371426)

巴里·诺兰 Barry Nolan (id:1372649)

阿德里安·M·蒙波因特 Adrian M. Mompoint (id:1413072)

尼克·普林西比 Nick Principe (id:1425712)

(id:1359659)

金伯利·豪威 Kimberly Howe (id:1359658)

泰瑞·塞尔皮科 Terry Serpico (id:1359657)

雷蒙德·J·巴里 Raymond J. Barry (id:1032043)

大卫·阿隆·贝克 David Aaron Baker (id:1022897)

克里斯托弗·詹姆斯·贝克 Christopher James Baker (id:1367210)

布拉德利·福勒 Bradley Fuller (id:1284314)

迈克尔·贝 Michael Bay (id:1027776)

雅克·乔夫雷特 Jacques Jouffret (id:1288027)

◎标 签 美国 / 犯罪 / 暴力 / 惊悚 / 人性 / 血腥 / 2016 / 恐怖

◎简 介

一年一度的国定杀戮日即将到来,与此同时,美国总统大选也到了如火如荼的阶段,一方是创立并推行国定杀戮日的NFFA的代言人艾德维奇?欧文斯,一方则是曾被这个可怕的杀戮夺走家人的女参议员查理·罗恩(伊丽莎白·米切尔 Elizabeth Mitchell 饰)。查理不惜一切代价要将国定杀戮日废止,因此成为了NFFA的眼中钉,对方策划在杀戮之夜夺走她的性命。刚强的查理坚持当晚待在家中,而她的安全主管里奥(弗兰克·格里罗 Frank Grillo 饰)则打起十二分的精神准备应对四面八方的对手。

由于内部出现奸细,里奥只能被迫带着罗恩逃离住所,在这一路上,他们得到一些支持者的救助,而对手也决不肯放过这个千载难逢的机会……

  1. ##### MediaInfo ######

  2. General

  3. Unique ID : 292085850008986405089478881208522991062 (0xDBBDB040A5392378558CABEA428365D6)

  4. Complete name : The Purge Election Year 2016 BluRay 1080p X265 10bit DTS-10017@BBQDDQ.COM.mkv

  5. Format : Matroska

  6. Format version : Version 4

  7. File size : 6.86 GiB

  8. Duration : 1 h 48 min

  9. Overall bit rate : 9 026 kb/s

  10. Movie name : The Purge: Election Year

  11. Encoded date : UTC 2021-08-19 20:14:09

  12. Writing application : mkvmerge v60.0.0 ('Are We Copies?') 64-bit

  13. Writing library : libebml v1.4.2 + libmatroska v1.6.4

  14. Cover : Yes

  15. Attachments : cover.jpg / cover.jpg / cover.jpg


  16. Video

  17. ID : 1

  18. Format : HEVC

  19. Format/Info : High Efficiency Video Coding

  20. Format profile : Main 10@L4@Main

  21. Codec ID : V_MPEGH/ISO/HEVC

  22. Duration : 1 h 48 min

  23. Bit rate : 7 445 kb/s

  24. Width : 1 920 pixels

  25. Height : 800 pixels

  26. Display aspect ratio : 2.40:1

  27. Frame rate mode : Constant

  28. Frame rate : 23.976 (24000/1001/53354) FPS

  29. Color space : YUV

  30. Chroma subsampling : 4:2:0

  31. Bit depth : 10 bits

  32. Bits/(Pixel*Frame) : 0.202

  33. Stream size : 5.66 GiB (82%)

  34. Writing library : x265 3.5+2-g2b25c9ba0+45:[Windows][GCC 10.2.0][64 bit] Yuuki 10bit+8bit+12bit

  35. Encoding settings : rc=crf / crf=18.5000 / qcomp=0.70 / qpstep=4 / stats-write=0 / stats-read=0 / no-lossless / no-cu-lossless / aq-mode=3 / aq-strength=0.70 / cbqpoffs=0 / crqpoffs=0 / ipratio=1.40 / pbratio=1.30 / psy-rd=2.00 / psy-rdoq=0.00 / deblock=0:0 / ref=6 / limit-refs=1 / no-limit-modes / bframes=8 / b-adapt=2 / bframe-bias=0 / b-pyramid / b-intra / weightp / weightb / min-keyint=12 / max-keyint=240 / rc-lookahead=24 / gop-lookahead=0 / NTMzNTQ=uuDQuD2mJt9fsCf / scenecut=40 / hist-scenecut=0 / radl=0 / max-cu-size=64 / min-cu-size=8 / me=3 / subme=7 / merange=48 / rdoq-level=0 / rd=4 / rdpenalty=0 / dynamic-rd=0.00 / no-rd-refine / ----- / cutree / sao / no-rect / no-amp / no-open-gop / wpp / no-pmode / no-pme / no-psnr / no-ssim / nr-intra=0 / nr-inter=0 / no-constrained-intra / no-strong-intra-smoothing / max-tu-size=32 / tu-inter-depth=1 / tu-intra-depth=1 / limit-tu=0 / qg-size=32 / qpmax=69 / qpmin=0 / ----- / cpuid=533541111039 / frame-threads=4 / numa-pools=+ / log-level=2 / input-csp=1 / input-res=1920x800 / interlace=0 / level-idc=0 / high-tier=1 / uhd-bd=0 / no-allow-non-conformance / no-repeat-headers / aud / no-hrd / info / hash=0 / no-temporal-layers / lookahead-slices=5 / no-splice / no-intra-refresh / no-ssim-rd / signhide / no-tskip / max-merge=3 / temporal-mvp / no-frame-dup / no-hme / no-analyze-src-pics / no-sao-non-deblock / selective-sao=4 / early-skip / rskip / no-fast-intra / no-tskip-fast / no-splitrd-skip / zone-count=0 / no-strict-cbr / no-rc-grain / no-const-vbv / sar=0 / overscan=0 / videoformat=5 / range=0 / colorprim=2 / transfer=2 / colormatrix=2 / chromaloc=0 / display-window=0 / cll=0,0 / min-luma=0 / max-luma=1023 / log2-max-poc-lsb=8 / vui-timing-info / vui-hrd-info / slices=1 / no-opt-qp-pps / no-opt-ref-list-length-pps / no-multi-pass-opt-rps / scenecut-bias=0.05 / hist-threshold=0.03 / no-opt-cu-delta-qp / no-aq-motion / no-hdr10 / no-hdr10-opt / no-dhdr10-opt / no-idr-recovery-sei / analysis-reuse-level=0 / analysis-save-reuse-level=0 / analysis-load-reuse-level=0 / scale-factor=0 / refine-intra=0 / refine-inter=0 / refine-mv=1 / refine-ctu-distortion=0 / no-limit-sao / ctu-info=0 / no-lowpass-dct / refine-analysis-type=0 / copy-pic=1 / max-ausize-factor=1.0 / no-dynamic-refine / no-single-sei / no-hevc-aq / no-svt / no-field / qp-adaptation-range=1.00 / scenecut-aware-qp=0conformance-window-offsets / right=0 / bottom=0 / NTMzNTQ= / decoder-max-rate=0 / no-vbv-live-multi-pass

  36. Language : English

  37. Default : Yes

  38. Forced : No


  39. Audio

  40. ID : 2

  41. ID in the original source medium : 4352 (0x1100)

  42. Format : DTS

  43. Format/Info : Digital Theater Systems

  44. Codec ID : A_DTS

  45. Duration : 1 h 48 min

  46. Bit rate mode : Constant

  47. Bit rate : 1 509 kb/s

  48. Channel(s) : 6 channels

  49. Channel layout : C L R Ls Rs LFE

  50. Sampling rate : 48.0 kHz

  51. Frame rate : 93.750 FPS (512 SPF)

  52. Bit depth : 24 bits

  53. Compression mode : Lossy

  54. Stream size : 1.15 GiB (17%)

  55. Language : English

  56. Default : Yes

  57. Forced : No

  58. Original source medium : Blu-ray


  59. Text #1

  60. ID : 3

  61. Format : PGS

  62. Muxing mode : zlib

  63. Codec ID : S_HDMV/PGS

  64. Codec ID/Info : Picture based subtitle format used on BDs/HD-DVDs

  65. Duration : 1 h 43 min

  66. Bit rate : 42.9 kb/s

  67. Count of elements : 2417

  68. Stream size : 31.8 MiB (0%)

  69. Title : 简英

  70. Language : Chinese

  71. Default : Yes

  72. Forced : No


  73. Text #2

  74. ID : 4

  75. Format : PGS

  76. Muxing mode : zlib

  77. Codec ID : S_HDMV/PGS

  78. Codec ID/Info : Picture based subtitle format used on BDs/HD-DVDs

  79. Duration : 1 h 43 min

  80. Bit rate : 43.0 kb/s

  81. Count of elements : 2417

  82. Stream size : 31.8 MiB (0%)

  83. Title : 繁英

  84. Language : Chinese

  85. Default : Yes

  86. Forced : No


  87. Text #3

  88. ID : 5

  89. Format : PGS

  90. Muxing mode : zlib

  91. Codec ID : S_HDMV/PGS

  92. Codec ID/Info : Picture based subtitle format used on BDs/HD-DVDs

  93. Duration : 1 h 43 min

  94. Bit rate : 23.2 kb/s

  95. Count of elements : 2417

  96. Stream size : 17.2 MiB (0%)

  97. Title : 简中

  98. Language : Chinese

  99. Default : Yes

  100. Forced : No


  101. Text #4

  102. ID : 6

  103. Format : PGS

  104. Muxing mode : zlib

  105. Codec ID : S_HDMV/PGS

  106. Codec ID/Info : Picture based subtitle format used on BDs/HD-DVDs

  107. Duration : 1 h 43 min

  108. Bit rate : 23.3 kb/s

  109. Count of elements : 2417

  110. Stream size : 17.3 MiB (0%)

  111. Title : 繁中

  112. Language : Chinese

  113. Default : Yes

  114. Forced : No


  115. Text #5

  116. ID : 7

  117. Format : PGS

  118. Muxing mode : zlib

  119. Codec ID : S_HDMV/PGS

  120. Codec ID/Info : Picture based subtitle format used on BDs/HD-DVDs

  121. Duration : 1 h 43 min

  122. Bit rate : 40.7 kb/s

  123. Count of elements : 2872

  124. Stream size : 30.1 MiB (0%)

  125. Title : 英语

  126. Language : English

  127. Default : Yes

  128. Forced : No


文件下载


除非特别注明,本文『人类清除计划3[简繁字幕].The.Purge.Election.Year.2016.BluRay.1080p.X265.10bit.DTS 6.86GB』来源于互联网机器人自动抓取,非本站原创。 浮游电影网不对本文拥有版权,如有侵犯,请联系邮箱:fuyouu#yandex.com[#换成@]投诉。我们会在15个工作日内删除。 但烦请转载时请标明出处:“本文转载于『浮游电影网』,原文地址:https://www.fuyouu.com/13887.html

评论吧骚年!

发表你的见解   

昵称*

E-mail*(建议输入,以便收到博主回复的提示邮件)

验证码*

您可以使用eMule或eMule Mod(Windows)、aMule(Win、Linux、Mac)等软件下载eD2k链接。。
eMule收藏集(.emulecollection)文件是您选中的所有链接的列表文件。eMule可以直接下载它们。
按住SHIFT键选择可以选中多个选择框。
可用文件名和大小选择器来选择文件。
文件名选择器帮您根据文件名称或后缀来选择文件。不分大小写。
符号使用:
和:空格( )、+
不包含:-
或:|
转义:一对英文引号("");
匹配开头:^
匹配结尾:$
例如:
选中所有名称中包含有“eMule”或“0.49c”字眼,但不包含有“exe”字眼的:emule|0.49c -exe
选中所有名称的开头是“eMule”,结尾是“0.49c”的:^emule 0.49c$
选中所有名称中带有“eMule 0.49c”的(必须是“eMule 0.49c”,中间没有别的字符,不能是“eMule fake 0.49c”),需要转义:"emule 0.49c"
大小选择器帮您根据文件大小选择文件。