当前位置: 首页 >> 日韩电影 >> 阿修罗[中文字幕].Asura.The.City.of.Madness.2016.1080p.BluRay.x265.10bit.DTS 9.23GB >> 正文

阿修罗[中文字幕].Asura.The.City.of.Madness.2016.1080p.BluRay.x265.10bit.DTS 9.23GB

2021年08月24日 08:55:17     电影发布:来源于网络     电影分类:日韩电影     评论(0)    

阿修罗[中文字幕].Asura.The.City.of.Madness.2016.1080p.BluRay.x265.10bit.DTS 9.23GB 犯罪片 动作片 剧情片 日韩电影  第1张

◎译 名 阿修罗 / 阿修罗-正邪顽杀(台) / Asura: The City of Madness

◎片 名 ???

◎年 代 2016

◎产 地 韩国

◎类 别 剧情 / 动作 / 犯罪

◎语 言 韩语

◎上映日期 2016-09-12(多伦多电影节) / 2016-09-28(韩国)

◎IMDb链接 https://www.imdb.com/title/tt5918028/

◎豆瓣评分 7.5/10 (44469人评价)

◎豆瓣链接 https://movie.douban.com/subject/26389331/

◎片 长 133分钟

◎导 演 金成洙 Sung-su Kim (id:1040892)

◎编 剧 金成洙 Sung-su Kim (id:1040892)

◎演 员 郑雨盛 Woo-sung Jung (id:1032365)

黄政民 Jeong-min Hwang (id:1051046)

朱智勋 Ji-hun Ju (id:1041047)

郭度沅 Do-Won Kwak (id:1320516)

郑满植 Man-shik Jeong (id:1327294)

金元海 Won-hae Kim (id:1343833)

尹宰文 Je-mun Yun (id:1315556)

尹智慧 Ji-hye Yun (id:1042532)

金南珍 Kim Nam-jin (id:1384272)

廉东宪 Dong-hun Yum (id:1385207)

金玄彬 Hyun-bin Kim (id:1385795)

朴赫民 Hyeok-min Park (id:1391498)

朴孝根 Hyo-geun Park (id:1393328)

郑米楠 Mi-nam Jung (id:1398050)

金海坤 Hae-gon Kim (id:1400152)

郑美南 Mi-nam Jeong (id:1425290)

金南佶 Nam-gil Kim (id:1275127)

金秀珍 Soo Jin Kim (id:1382571)

朴智焕 Park Ji-hwan (id:1382226)

郑东奎 Dong-gyu Jeong (id:1376063)

金钟秀 Jong-soo Kim (id:1366651)

崔秉默 Byung-mo Choi (id:1376009)

李泰亨 Tae-hyung Lee (id:1379903)

尹大烈 Dae-yeol Yoon (id:1399216)

Charlie Iturriaga Charlie Iturriaga (id:1307761)

◎标 签 韩国 / 犯罪 / 暴力 / 政治 / 血腥 / 动作 / 黑帮 / 剧情

◎简 介

身处台风眼的刑警韩度京(郑雨盛饰),夹在朴成裴市长(黄政民饰)和调查他的刑警队之间,为了自己的生存而不择手段。片中最大的反派朴成裴市长,为了追求私利而无所不为。刑警文先模(朱智勋饰),在韩度京的命令下,接近朴市长担任卧底工作。另一方面,特殊监察支队的检察官金车仁(郭道元饰)也在调查着朴成裴市长,是个心狠手辣的角色。韩度京为了取得成功而不惜为市长朴成裴的各种犯罪活动做善后,并从中收取报酬。韩度京得知妻子身患癌症后,以筹措医疗费用为借口,赚钱不计手段,渐渐偏离了警察的职业道德,走上歪路。负责特种案件的检察官金车仁手里攥着韩度京的弱点,刑警调查队队长都昌学(郑万植饰)也为了获取朴成裴的犯罪证据而威胁韩度京。后辈刑警文先模,视韩度京如亲哥哥,打进朴成裴团伙做卧底工作。韩度京处于两种势力之间进退维谷,此时的文先模也慢慢被腐蚀。就这样,几个男人各自为了生存厮杀,...

◎获奖情况 (共13项)

第37届韩国电影青龙奖 (2016)

最佳男主角(提名)

└──郑雨盛 (id:1032365)

最佳美术(提名)

最佳配乐(提名)

最佳照明

技术奖(提名)

第53届百想艺术大赏 (2017)

电影类 最佳影片(提名)

└──金成洙 (id:1040892)

电影类 最佳导演(提名)

└──金成洙 (id:1040892)

电影类 最佳编剧(提名)

└──金成洙 (id:1040892)

第53届韩国电影大钟奖 (2016)

最佳摄影(提名)

└──李毛凯 (id:1306251)

最佳剪辑(提名)

最佳美术(提名)

最佳录音(提名)

最佳照明(提名)

  1. ##### MediaInfo ######

  2. General

  3. Unique ID : 16560601423735325867552003525223029742 (0xC7574B07B6BEDD7FD335FA0737A9BEE)

  4. Complete name : Asura.The.City.of.Madness.2016.1080p.BluRay.x265.10bit.DTS-10017@BBQDDQ.COM.mkv

  5. Format : Matroska

  6. Format version : Version 4

  7. File size : 9.23 GiB

  8. Duration : 2 h 12 min

  9. Overall bit rate : 9 935 kb/s

  10. Movie name : ???_Disc.1

  11. Encoded date : UTC 2021-08-23 03:53:17

  12. Writing application : mkvmerge v59.0.0 ('Shining Star') 64-bit

  13. Writing library : libebml v1.4.2 + libmatroska v1.6.4

  14. Cover : Yes

  15. Attachments : cover.jpg


  16. Video

  17. ID : 1

  18. Format : HEVC

  19. Format/Info : High Efficiency Video Coding

  20. Format profile : Main 10@L5@Main

  21. Codec ID : V_MPEGH/ISO/HEVC

  22. Duration : 2 h 12 min

  23. Bit rate : 8 378 kb/s

  24. Width : 1 920 pixels

  25. Height : 1 036 pixels

  26. Display aspect ratio : 1.85:1

  27. Frame rate mode : Constant

  28. Frame rate : 23.976 (24000/1001/53354) FPS

  29. Color space : YUV

  30. Chroma subsampling : 4:2:0

  31. Bit depth : 10 bits

  32. Bits/(Pixel*Frame) : 0.176

  33. Stream size : 7.78 GiB (84%)

  34. Writing library : x265 3.5+2-g2b25c9ba0+45:[Windows][GCC 10.2.0][64 bit] Yuuki 10bit+8bit+12bit

  35. Encoding settings : rc=crf / crf=17.0000 / qcomp=0.60 / qpstep=4 / stats-write=0 / stats-read=0 / no-lossless / no-cu-lossless / aq-mode=3 / aq-strength=0.90 / cbqpoffs=0 / crqpoffs=0 / ipratio=1.40 / pbratio=1.30 / psy-rd=2.00 / psy-rdoq=0.00 / deblock=0:0 / ref=6 / limit-refs=1 / no-limit-modes / bframes=8 / b-adapt=2 / bframe-bias=0 / b-pyramid / b-intra / weightp / weightb / min-keyint=24 / max-keyint=240 / rc-lookahead=24 / gop-lookahead=0 / NTMzNTQ=uuDQuD2mJt9fsCf / scenecut=40 / hist-scenecut=0 / radl=0 / max-cu-size=64 / min-cu-size=8 / me=3 / subme=7 / merange=48 / rdoq-level=0 / rd=4 / rdpenalty=0 / dynamic-rd=0.00 / no-rd-refine / ----- / cutree / sao / no-rect / no-amp / no-open-gop / wpp / no-pmode / no-pme / no-psnr / no-ssim / nr-intra=0 / nr-inter=0 / no-constrained-intra / no-strong-intra-smoothing / max-tu-size=32 / tu-inter-depth=1 / tu-intra-depth=1 / limit-tu=0 / qg-size=32 / qpmax=69 / qpmin=0 / ----- / cpuid=533541111039 / frame-threads=4 / numa-pools=+ / log-level=2 / input-csp=1 / input-res=1920x1036 / interlace=0 / level-idc=0 / high-tier=1 / uhd-bd=0 / no-allow-non-conformance / no-repeat-headers / aud / no-hrd / info / hash=0 / no-temporal-layers / lookahead-slices=0 / no-splice / no-intra-refresh / no-ssim-rd / signhide / no-tskip / max-merge=3 / temporal-mvp / no-frame-dup / no-hme / no-analyze-src-pics / no-sao-non-deblock / selective-sao=4 / early-skip / rskip / no-fast-intra / no-tskip-fast / no-splitrd-skip / zone-count=0 / no-strict-cbr / no-rc-grain / no-const-vbv / sar=0 / overscan=0 / videoformat=5 / range=0 / colorprim=2 / transfer=2 / colormatrix=2 / chromaloc=0 / display-window=0 / cll=0,0 / min-luma=0 / max-luma=1023 / log2-max-poc-lsb=8 / vui-timing-info / vui-hrd-info / slices=1 / no-opt-qp-pps / no-opt-ref-list-length-pps / no-multi-pass-opt-rps / scenecut-bias=0.05 / hist-threshold=0.03 / no-opt-cu-delta-qp / no-aq-motion / no-hdr10 / no-hdr10-opt / no-dhdr10-opt / no-idr-recovery-sei / analysis-reuse-level=0 / analysis-save-reuse-level=0 / analysis-load-reuse-level=0 / scale-factor=0 / refine-intra=0 / refine-inter=0 / refine-mv=1 / refine-ctu-distortion=0 / no-limit-sao / ctu-info=0 / no-lowpass-dct / refine-analysis-type=0 / copy-pic=1 / max-ausize-factor=1.0 / no-dynamic-refine / no-single-sei / no-hevc-aq / no-svt / no-field / qp-adaptation-range=1.00 / scenecut-aware-qp=0conformance-window-offsets / right=0 / bottom=0 / NTMzNTQ= / decoder-max-rate=0 / no-vbv-live-multi-pass

  36. Language : Korean

  37. Default : Yes

  38. Forced : No


  39. Audio

  40. ID : 2

  41. ID in the original source medium : 4352 (0x1100)

  42. Format : DTS

  43. Format/Info : Digital Theater Systems

  44. Codec ID : A_DTS

  45. Duration : 2 h 12 min

  46. Bit rate mode : Constant

  47. Bit rate : 1 509 kb/s

  48. Channel(s) : 6 channels

  49. Channel layout : C L R Ls Rs LFE

  50. Sampling rate : 48.0 kHz

  51. Frame rate : 93.750 FPS (512 SPF)

  52. Bit depth : 24 bits

  53. Compression mode : Lossy

  54. Stream size : 1.40 GiB (15%)

  55. Language : Korean

  56. Default : Yes

  57. Forced : No

  58. Original source medium : Blu-ray


  59. Text #1

  60. ID : 3

  61. ID in the original source medium : 4610 (0x1202)

  62. Format : PGS

  63. Muxing mode : zlib

  64. Codec ID : S_HDMV/PGS

  65. Codec ID/Info : Picture based subtitle format used on BDs/HD-DVDs

  66. Duration : 2 h 9 min

  67. Bit rate : 24.8 kb/s

  68. Count of elements : 2621

  69. Stream size : 22.9 MiB (0%)

  70. Title : chs

  71. Language : Chinese

  72. Default : Yes

  73. Forced : No

  74. Original source medium : Blu-ray


  75. Text #2

  76. ID : 4

  77. ID in the original source medium : 4611 (0x1203)

  78. Format : PGS

  79. Muxing mode : zlib

  80. Codec ID : S_HDMV/PGS

  81. Codec ID/Info : Picture based subtitle format used on BDs/HD-DVDs

  82. Duration : 2 h 9 min

  83. Bit rate : 25.1 kb/s

  84. Count of elements : 2621

  85. Stream size : 23.2 MiB (0%)

  86. Title : cht

  87. Language : Chinese

  88. Default : No

  89. Forced : No

  90. Original source medium : Blu-ray


  91. Text #3

  92. ID : 5

  93. ID in the original source medium : 4608 (0x1200)

  94. Format : PGS

  95. Muxing mode : zlib

  96. Codec ID : S_HDMV/PGS

  97. Codec ID/Info : Picture based subtitle format used on BDs/HD-DVDs

  98. Duration : 2 h 8 min

  99. Bit rate : 28.3 kb/s

  100. Count of elements : 3130

  101. Stream size : 26.0 MiB (0%)

  102. Title : kor

  103. Language : Korean

  104. Default : No

  105. Forced : No

  106. Original source medium : Blu-ray


  107. Text #4

  108. ID : 6

  109. ID in the original source medium : 4609 (0x1201)

  110. Format : PGS

  111. Muxing mode : zlib

  112. Codec ID : S_HDMV/PGS

  113. Codec ID/Info : Picture based subtitle format used on BDs/HD-DVDs

  114. Duration : 2 h 9 min

  115. Bit rate : 28.4 kb/s

  116. Count of elements : 2966

  117. Stream size : 26.3 MiB (0%)

  118. Title : eng

  119. Language : English

  120. Default : No

  121. Forced : No

  122. Original source medium : Blu-ray


  123. Menu

  124. 00:00:00.000 : 第 01 章

  125. 00:04:46.286 : 第 02 章

  126. 00:13:24.094 : 第 03 章

  127. 00:24:30.260 : 第 04 章

  128. 00:31:33.892 : 第 05 章

  129. 00:37:56.190 : 第 06 章

  130. 00:45:22.970 : 第 07 章

  131. 00:54:30.308 : 第 08 章

  132. 01:01:48.121 : 第 09 章

  133. 01:07:07.732 : 第 10 章

  134. 01:17:22.095 : 第 11 章

  135. 01:23:22.872 : 第 12 章

  136. 01:31:25.605 : 第 13 章

  137. 01:41:15.277 : 第 14 章

  138. 01:54:18.560 : 第 15 章

  139. 02:09:16.081 : 第 16 章

文件下载


除非特别注明,本文『阿修罗[中文字幕].Asura.The.City.of.Madness.2016.1080p.BluRay.x265.10bit.DTS 9.23GB』来源于互联网机器人自动抓取,非本站原创。 浮游电影网不对本文拥有版权,如有侵犯,请联系邮箱:fuyouu#yandex.com[#换成@]投诉。我们会在15个工作日内删除。 但烦请转载时请标明出处:“本文转载于『浮游电影网』,原文地址:https://www.fuyouu.com/13882.html

评论吧骚年!

发表你的见解   

昵称*

E-mail*(建议输入,以便收到博主回复的提示邮件)

验证码*

您可以使用eMule或eMule Mod(Windows)、aMule(Win、Linux、Mac)等软件下载eD2k链接。。
eMule收藏集(.emulecollection)文件是您选中的所有链接的列表文件。eMule可以直接下载它们。
按住SHIFT键选择可以选中多个选择框。
可用文件名和大小选择器来选择文件。
文件名选择器帮您根据文件名称或后缀来选择文件。不分大小写。
符号使用:
和:空格( )、+
不包含:-
或:|
转义:一对英文引号("");
匹配开头:^
匹配结尾:$
例如:
选中所有名称中包含有“eMule”或“0.49c”字眼,但不包含有“exe”字眼的:emule|0.49c -exe
选中所有名称的开头是“eMule”,结尾是“0.49c”的:^emule 0.49c$
选中所有名称中带有“eMule 0.49c”的(必须是“eMule 0.49c”,中间没有别的字符,不能是“eMule fake 0.49c”),需要转义:"emule 0.49c"
大小选择器帮您根据文件大小选择文件。