当前位置: 首页 >> 国产电影 >> 龙脉.八方神域[国语配音/中文字幕].The.Eight.Flags.Of.God.2021.1080p.WEB-DL.H264.AAC 1.47GB >> 正文

龙脉.八方神域[国语配音/中文字幕].The.Eight.Flags.Of.God.2021.1080p.WEB-DL.H264.AAC 1.47GB

2021年08月22日 21:28:33     电影发布:来源于网络     电影分类:国产电影     评论(0)    

龙脉.八方神域[国语配音/中文字幕].The.Eight.Flags.Of.God.2021.1080p.WEB DL.H264.AAC 1.47GB 冒险片 动作片 剧情片 国产电影  第1张

◎译 名 龙脉·八幡神域

◎年 代 2021

◎产 地 中国大陆

◎类 别 剧情 / 动作 / 冒险

◎语 言 汉语普通话

◎上映日期 2021-08-22(中国大陆)

◎IMDb链接 https://www.imdb.com/title//

◎豆瓣链接 https://movie.douban.com/subject/35561556/

◎导 演 李伯勋 Boxun Li (id:1404453)

◎演 员 淮文 Shawn (id:1337187)

胡雪儿 Xue'er Hu (id:1402568)

包小平 Xiaoping Bao (id:1406523)

金亮 Liang Jin (id:1350238)

刘音 Toshika Liu (id:1365646)

佟磊 Lei Tong (id:1316504)

姜永波 Yongbo Jiang (id:1370207)

标马 Ma Biao (id:1359016)

◎标 签 冒险 / 大陆 / 2021等评分

◎简 介

故事发生在九十年代初,文物局司机王保银(萧浩冉饰)万事不顺,工作屡次无法转正。一筹莫展之际他意外发现了失踪多年的父亲所留下的遗物:一张龙脉地图和带有特殊标志的徽章。父亲本就是王保银的心结,而这一契机让急于证明自己的王保银开始对父亲失踪一事进行追查。于是,王保银在发小胖子强(包小平饰)和“搬山道人”的后人郑鑫(胡雪儿饰)的支持下,三人一同踏上了险象重重的西行路。一望无垠的荒漠中,吞人蚀骨的沙漠风暴险些要了三人的命,然而,虽有幸被当地原住民阿拉白、米丽(刘音饰)救出,却又很快被原住民误认为他们来者不善,遭到各种计谋追杀。此时,屡次入室王保银家的楚江平(李中奇饰)盗墓团伙也在此地现身。王保银三人在一次又一次的绝地求生后,终于找到神域入口,于是梦中的神秘幻象竟真的出现王保银的眼前:一片满是孢子的地下湖、隐约浮现邪神少女(曹禹澄饰)的影子,半空悬着的巨大的八幡...

  1. ##### MediaInfo ######

  2. General

  3. Complete name : 龙脉.八方神域.The.Eight.Flags.Of.God.2021.1080p.WEB-DL.H264.AAC-10006@BBQDDQ.COM.mp4

  4. Format : MPEG-4

  5. Format profile : Base Media

  6. Codec ID : isom (isom/iso2/avc1/mp41)

  7. File size : 1.46 GiB

  8. Duration : 1 h 28 min

  9. Overall bit rate : 2 374 kb/s

  10. Writing application : Lavf58.27.103


  11. Video

  12. ID : 1

  13. Format : AVC

  14. Format/Info : Advanced Video Codec

  15. Format profile : High@L4

  16. Format settings : CABAC / 4 Ref Frames

  17. Format settings, CABAC : Yes

  18. Format settings, Reference frames : 4 frames

  19. Codec ID : avc1

  20. Codec ID/Info : Advanced Video Coding

  21. Duration : 1 h 28 min

  22. Bit rate : 2 275 kb/s

  23. Width : 1 920 pixels

  24. Height : 816 pixels

  25. Display aspect ratio : 2.35:1

  26. Frame rate mode : Variable

  27. Frame rate : 25.000 FPS

  28. Minimum frame rate : 24.993 FPS

  29. Maximum frame rate : 25.007 FPS

  30. Color space : YUV

  31. Chroma subsampling : 4:2:0

  32. Bit depth : 8 bits

  33. Scan type : Progressive

  34. Bits/(Pixel*Frame) : 0.058

  35. Stream size : 1.40 GiB (96%)

  36. Writing library : ptw-1.0.134 rcm-adapt vs-93 vwk

  37. Color range : Limited

  38. Color primaries : BT.709

  39. Transfer characteristics : BT.709

  40. Matrix coefficients : BT.709

  41. Codec configuration box : avcC


  42. Audio

  43. ID : 2

  44. Format : AAC LC

  45. Format/Info : Advanced Audio Codec Low Complexity

  46. Codec ID : mp4a-40-2

  47. Duration : 1 h 28 min

  48. Bit rate mode : Constant

  49. Bit rate : 93.4 kb/s

  50. Channel(s) : 2 channels

  51. Channel layout : L R

  52. Sampling rate : 48.0 kHz

  53. Frame rate : 46.875 FPS (1024 SPF)

  54. Compression mode : Lossy

  55. Stream size : 59.0 MiB (4%)

  56. Default : Yes

  57. Alternate group : 1



文件下载


除非特别注明,本文『龙脉.八方神域[国语配音/中文字幕].The.Eight.Flags.Of.God.2021.1080p.WEB-DL.H264.AAC 1.47GB』来源于互联网机器人自动抓取,非本站原创。 浮游电影网不对本文拥有版权,如有侵犯,请联系邮箱:fuyouu#yandex.com[#换成@]投诉。我们会在15个工作日内删除。 但烦请转载时请标明出处:“本文转载于『浮游电影网』,原文地址:https://5.189.174.242/13842.html

评论吧骚年!

发表你的见解   

昵称*

E-mail*(建议输入,以便收到博主回复的提示邮件)

验证码*

您可以使用eMule或eMule Mod(Windows)、aMule(Win、Linux、Mac)等软件下载eD2k链接。。
eMule收藏集(.emulecollection)文件是您选中的所有链接的列表文件。eMule可以直接下载它们。
按住SHIFT键选择可以选中多个选择框。
可用文件名和大小选择器来选择文件。
文件名选择器帮您根据文件名称或后缀来选择文件。不分大小写。
符号使用:
和:空格( )、+
不包含:-
或:|
转义:一对英文引号("");
匹配开头:^
匹配结尾:$
例如:
选中所有名称中包含有“eMule”或“0.49c”字眼,但不包含有“exe”字眼的:emule|0.49c -exe
选中所有名称的开头是“eMule”,结尾是“0.49c”的:^emule 0.49c$
选中所有名称中带有“eMule 0.49c”的(必须是“eMule 0.49c”,中间没有别的字符,不能是“eMule fake 0.49c”),需要转义:"emule 0.49c"
大小选择器帮您根据文件大小选择文件。