当前位置: 首页 >> 国产电影 >> 夜莺[国语配音/中文字幕].The.Nightingale.2013.1080p.HDR.WEB-DL.H265.AAC 1.84GB >> 正文

夜莺[国语配音/中文字幕].The.Nightingale.2013.1080p.HDR.WEB-DL.H265.AAC 1.84GB

2021年08月22日 21:27:26     电影发布:来源于网络     电影分类:国产电影     评论(0)    

夜莺[国语配音/中文字幕].The.Nightingale.2013.1080p.HDR.WEB DL.H265.AAC 1.84GB 家庭片 剧情片 国产电影  第1张

◎译 名 夜莺 / The Nightingale

◎片 名 Le Promeneur d'Oiseau

◎年 代 2013

◎产 地 中国大陆 / 法国

◎类 别 剧情 / 家庭

◎语 言 汉语普通话 / 广西方言 / 法语

◎上映日期 2014-10-31(中国大陆) / 2013-10-05(釜山电影节) / 2014-05-07(法国)

◎IMDb链接 https://www.imdb.com/title/tt2976864/

◎豆瓣评分 6.5/10 (7549人评价)

◎豆瓣链接 https://movie.douban.com/subject/19962587/

◎片 长 92分钟(中国大陆)

◎导 演 费利普·弥勒 Philippe Muyl (id:1019803)

◎编 剧 费利普·弥勒 Philippe Muyl (id:1019803)

宁宁 Ning Ning (id:1343590)

◎演 员 李保田 Baotian Li (id:1038193)

杨心仪 Xinyi Yang (id:1339498)

李小冉 Xiaoran Li (id:1258893)

秦昊 Hao Qin (id:1274463)

魏小欢 Xiaohuan Wei (id:1381873)

果敢 Gan Guo (id:1389753)

◎标 签 中国 / 家庭 / 法国 / 亲情 / 文艺 / 温情 / 2014 / 剧情

◎简 介

朱志根(李保田 饰)和崇义(秦昊 饰)虽身为父子,但彼此之间关系却十分淡漠,甚至到了互不理睬的地步。虽然倩影(李小冉 饰)几次想要调解公公和丈夫之间的矛盾却均以失败告终。与此同时,倩影和崇义之间的夫妻情谊亦因为繁忙的工作和缺少沟通而产生了裂痕。

朱志根有一个未了的心愿,那就是把过世的妻子送给他的夜莺带回妻子长眠的那片土地,并且在妻子的坟墓上将夜莺放生。一番波折和意外之后,朱志根带着孙女任幸(杨心仪 饰)踏上了前往老家阳朔的旅途。这段旅途注定不会太平,接二连三的意外发生之后,这一老一小能否顺利的抵达目的地呢?

  1. ##### MediaInfo ######

  2. General

  3. Unique ID : 66086118629249215161810199863556150484 (0x31B7B935D4A26B5F6DBBEAE3179994D4)

  4. Complete name : 夜莺.The.Nightingale.2013.1080p.HDR.WEB-DL.H265.AAC-10006@BBQDDQ.COM.mkv

  5. Format : Matroska

  6. Format version : Version 4

  7. File size : 1.84 GiB

  8. Duration : 1 h 41 min

  9. Overall bit rate : 2 607 kb/s

  10. Encoded date : UTC 2021-08-07 13:43:15

  11. Writing application : mkvmerge v49.0.0 ('Sick Of Losing Soulmates') 64-bit

  12. Writing library : libebml v1.4.0 + libmatroska v1.6.1


  13. Video

  14. ID : 1

  15. Format : HEVC

  16. Format/Info : High Efficiency Video Coding

  17. Format profile : Main 10@L4@Main

  18. HDR format : SMPTE ST 2086, HDR10 compatible

  19. Codec ID : V_MPEGH/ISO/HEVC

  20. Duration : 1 h 41 min

  21. Bit rate : 2 481 kb/s

  22. Width : 1 920 pixels

  23. Height : 800 pixels

  24. Display aspect ratio : 2.40:1

  25. Frame rate mode : Constant

  26. Frame rate : 24.000 FPS

  27. Color space : YUV

  28. Chroma subsampling : 4:2:0

  29. Bit depth : 10 bits

  30. Bits/(Pixel*Frame) : 0.067

  31. Stream size : 1.75 GiB (95%)

  32. Default : Yes

  33. Forced : No

  34. Color range : Limited

  35. Color primaries : BT.2020

  36. Transfer characteristics : PQ

  37. Matrix coefficients : BT.2020 non-constant

  38. Mastering display color primaries : R: x=0.708000 y=0.292000, G: x=0.170000 y=0.797000, B: x=0.130000 y=0.046000, White point: x=0.312700 y=0.329000

  39. Mastering display luminance : min: 0.0000 cd/m2, max: 0 cd/m2


  40. Audio

  41. ID : 2

  42. Format : AAC LC

  43. Format/Info : Advanced Audio Codec Low Complexity

  44. Codec ID : A_AAC-2

  45. Duration : 1 h 41 min

  46. Bit rate : 124 kb/s

  47. Channel(s) : 2 channels

  48. Channel layout : L R

  49. Sampling rate : 44.1 kHz

  50. Frame rate : 43.066 FPS (1024 SPF)

  51. Compression mode : Lossy

  52. Stream size : 89.9 MiB (5%)

  53. Language : Chinese

  54. Default : Yes

  55. Forced : No


文件下载


除非特别注明,本文『夜莺[国语配音/中文字幕].The.Nightingale.2013.1080p.HDR.WEB-DL.H265.AAC 1.84GB』来源于互联网机器人自动抓取,非本站原创。 浮游电影网不对本文拥有版权,如有侵犯,请联系邮箱:fuyouu#yandex.com[#换成@]投诉。我们会在15个工作日内删除。 但烦请转载时请标明出处:“本文转载于『浮游电影网』,原文地址:https://www.fuyouu.com/13841.html

评论吧骚年!

发表你的见解   

昵称*

E-mail*(建议输入,以便收到博主回复的提示邮件)

验证码*

您可以使用eMule或eMule Mod(Windows)、aMule(Win、Linux、Mac)等软件下载eD2k链接。。
eMule收藏集(.emulecollection)文件是您选中的所有链接的列表文件。eMule可以直接下载它们。
按住SHIFT键选择可以选中多个选择框。
可用文件名和大小选择器来选择文件。
文件名选择器帮您根据文件名称或后缀来选择文件。不分大小写。
符号使用:
和:空格( )、+
不包含:-
或:|
转义:一对英文引号("");
匹配开头:^
匹配结尾:$
例如:
选中所有名称中包含有“eMule”或“0.49c”字眼,但不包含有“exe”字眼的:emule|0.49c -exe
选中所有名称的开头是“eMule”,结尾是“0.49c”的:^emule 0.49c$
选中所有名称中带有“eMule 0.49c”的(必须是“eMule 0.49c”,中间没有别的字符,不能是“eMule fake 0.49c”),需要转义:"emule 0.49c"
大小选择器帮您根据文件大小选择文件。