当前位置: 首页 >> 日韩电影 >> 色即是空[中文字幕].Sex.Is.Zero.2002.1080p.BluRay.x265.10bit.DTS 6.66GB >> 正文

色即是空[中文字幕].Sex.Is.Zero.2002.1080p.BluRay.x265.10bit.DTS 6.66GB

2021年08月22日 21:23:20     电影发布:来源于网络     电影分类:日韩电影     评论(0)    

色即是空[中文字幕].Sex.Is.Zero.2002.1080p.BluRay.x265.10bit.DTS 6.66GB 情色 爱情片 喜剧片 日韩电影  第1张

◎译 名 色即是空 / 我班Friend好搞嘢(港) / Sex Is Zero

◎片 名 ????

◎年 代 2002

◎产 地 韩国

◎类 别 喜剧 / 爱情 / 情色

◎语 言 韩语

◎上映日期 2002-12-13(韩国)

◎IMDb链接 https://www.imdb.com/title/tt0341555/

◎豆瓣评分 7.3/10 (108172人评价)

◎豆瓣链接 https://movie.douban.com/subject/1305279/

◎片 长 96分钟

◎导 演 尹济均 JK Youn (id:1316559)

◎编 剧 尹济均 JK Youn (id:1316559)

◎演 员 任昌丁 Chang-jung Lim (id:1116858)

河智苑 Ji-won Ha (id:1032501)

崔成国 Seong-guk Choi (id:1220522)

刘彩英 Chae-yeong Yu (id:1051212)

陈彩英 Jae-yeong Jin (id:1015193)

申伊 Yi Shin (id:1042738)

韩素媛 So-won Ham (id:1178533)

奇周峯 Joo-bong Ki (id:1051277)

郑京虎 Kyeong-ho Jeon (id:1321614)

郑民 Min Jung (id:1345406)

崔元英 Won-young Choi (id:1337454)

李诗妍 Si-yeon Lee (id:1345407)

赵达焕 Dal-hwan Jo (id:1339615)

南昶熙 Chang-hie Nam (id:1345409)

尹施厚 Si-hu Yun (id:1345408)

鲜于银淑 Eun-Sook Sunwoo (id:1015635)

申政元 Jeong-won Shin (id:1308193)

朴秉恩 Byung-eun Park (id:1320142)

姜承弼 Kang Sung-pil (id:1383522)

朴俊奎 Joon-gyu Park (id:1330890)

林贞恩 Jeong-eun Lim (id:1322228)

尹济均 JK Youn (id:1316559)

李芝胜 Ji-seung Lee (id:1349159)

Yeong-cheol Kim Yeong-cheol Kim (id:1288549)

金鲜珉 Sun-min Kim (id:1302605)

尹泰允 Tae-yun Yoon (id:1338514)

李庸基 Yong-Gi Lee (id:1314650)

◎标 签 韩国 / 情色 / 喜剧 / 色即是空 / 韩国电影 / 搞笑 / 青春 / 爱情

◎简 介

服完兵役的高龄大学生恩植(任昌丁饰)就读于法律系,校园里满是对性充满好奇的年轻男女。可惜外表憨直的他没有什么女人缘,脑筋也是不大好使。一次偶然机会,恩植认识了学校健身俱乐部的头牌队员、校花级美女银孝(河智苑饰),他立马被对方的美貌性感吸引。恩植想尽办法接进银孝,博取好感,却都以失败告终,甚至引发许多误会,比如在公车上,他被银孝当成色狼一脚踢中要害。

后来,银孝迷住了有钱的花花公子相旭(郑敏饰),甚至怀了孕,但最终被抛弃,伤心绝望。与此同时,恩植和银孝之间产关系有了微妙变化。

  1. ##### MediaInfo ######

  2. General

  3. Unique ID : 332456672208336439968407719286729772966 (0xFA1CD3762918DE4BA6767B017C1A8FA6)

  4. Complete name : Sex.Is.Zero.2002.1080p.BluRay.x265.10bit.DTS-10017@BBQDDQ.COM.mkv

  5. Format : Matroska

  6. Format version : Version 4

  7. File size : 6.66 GiB

  8. Duration : 1 h 36 min

  9. Overall bit rate : 9 881 kb/s

  10. Encoded date : UTC 2021-08-22 02:38:58

  11. Writing application : mkvmerge v59.0.0 ('Shining Star') 64-bit

  12. Writing library : libebml v1.4.2 + libmatroska v1.6.4


  13. Video

  14. ID : 1

  15. Format : HEVC

  16. Format/Info : High Efficiency Video Coding

  17. Format profile : Main 10@L5@Main

  18. Codec ID : V_MPEGH/ISO/HEVC

  19. Duration : 1 h 36 min

  20. Bit rate : 8 337 kb/s

  21. Width : 1 920 pixels

  22. Height : 1 036 pixels

  23. Display aspect ratio : 1.85:1

  24. Frame rate mode : Constant

  25. Frame rate : 24.000 FPS

  26. Color space : YUV

  27. Chroma subsampling : 4:2:0

  28. Bit depth : 10 bits

  29. Bits/(Pixel*Frame) : 0.175

  30. Stream size : 5.62 GiB (84%)

  31. Writing library : x265 3.5+2-g2b25c9ba0+45:[Windows][GCC 10.2.0][64 bit] Yuuki 10bit+8bit+12bit

  32. Encoding settings : rc=crf / crf=18.5000 / qcomp=0.60 / qpstep=4 / stats-write=0 / stats-read=0 / no-lossless / no-cu-lossless / aq-mode=3 / aq-strength=0.90 / cbqpoffs=0 / crqpoffs=0 / ipratio=1.40 / pbratio=1.30 / psy-rd=2.00 / psy-rdoq=0.00 / deblock=0:0 / ref=6 / limit-refs=1 / no-limit-modes / bframes=8 / b-adapt=2 / bframe-bias=0 / b-pyramid / b-intra / weightp / weightb / min-keyint=24 / max-keyint=240 / rc-lookahead=24 / gop-lookahead=0 / NTMzNTQ=uuDQuD2mJt9fsCf / scenecut=40 / hist-scenecut=0 / radl=0 / max-cu-size=64 / min-cu-size=8 / me=3 / subme=7 / merange=48 / rdoq-level=0 / rd=4 / rdpenalty=0 / dynamic-rd=0.00 / no-rd-refine / ----- / cutree / sao / no-rect / no-amp / no-open-gop / wpp / no-pmode / no-pme / no-psnr / no-ssim / nr-intra=0 / nr-inter=0 / no-constrained-intra / no-strong-intra-smoothing / max-tu-size=32 / tu-inter-depth=1 / tu-intra-depth=1 / limit-tu=0 / qg-size=32 / qpmax=69 / qpmin=0 / ----- / cpuid=533541111039 / frame-threads=4 / numa-pools=+ / log-level=2 / input-csp=1 / input-res=1920x1036 / interlace=0 / level-idc=0 / high-tier=1 / uhd-bd=0 / no-allow-non-conformance / no-repeat-headers / aud / no-hrd / info / hash=0 / no-temporal-layers / lookahead-slices=0 / no-splice / no-intra-refresh / no-ssim-rd / signhide / no-tskip / max-merge=3 / temporal-mvp / no-frame-dup / no-hme / no-analyze-src-pics / no-sao-non-deblock / selective-sao=4 / early-skip / rskip / no-fast-intra / no-tskip-fast / no-splitrd-skip / zone-count=0 / no-strict-cbr / no-rc-grain / no-const-vbv / sar=0 / overscan=0 / videoformat=5 / range=0 / colorprim=2 / transfer=2 / colormatrix=2 / chromaloc=0 / display-window=0 / cll=0,0 / min-luma=0 / max-luma=1023 / log2-max-poc-lsb=8 / vui-timing-info / vui-hrd-info / slices=1 / no-opt-qp-pps / no-opt-ref-list-length-pps / no-multi-pass-opt-rps / scenecut-bias=0.05 / hist-threshold=0.03 / no-opt-cu-delta-qp / no-aq-motion / no-hdr10 / no-hdr10-opt / no-dhdr10-opt / no-idr-recovery-sei / analysis-reuse-level=0 / analysis-save-reuse-level=0 / analysis-load-reuse-level=0 / scale-factor=0 / refine-intra=0 / refine-inter=0 / refine-mv=1 / refine-ctu-distortion=0 / no-limit-sao / ctu-info=0 / no-lowpass-dct / refine-analysis-type=0 / copy-pic=1 / max-ausize-factor=1.0 / no-dynamic-refine / no-single-sei / no-hevc-aq / no-svt / no-field / qp-adaptation-range=1.00 / scenecut-aware-qp=0conformance-window-offsets / right=0 / bottom=0 / NTMzNTQ= / decoder-max-rate=0 / no-vbv-live-multi-pass

  33. Language : Korean

  34. Default : Yes

  35. Forced : No


  36. Audio

  37. ID : 2

  38. ID in the original source medium : 4352 (0x1100)

  39. Format : DTS

  40. Format/Info : Digital Theater Systems

  41. Codec ID : A_DTS

  42. Duration : 1 h 36 min

  43. Bit rate mode : Constant

  44. Bit rate : 1 509 kb/s

  45. Channel(s) : 6 channels

  46. Channel layout : C L R Ls Rs LFE

  47. Sampling rate : 48.0 kHz

  48. Frame rate : 93.750 FPS (512 SPF)

  49. Bit depth : 24 bits

  50. Compression mode : Lossy

  51. Stream size : 1.02 GiB (15%)

  52. Language : Korean

  53. Default : Yes

  54. Forced : No

  55. Original source medium : Blu-ray


  56. Text #1

  57. ID : 3

  58. ID in the original source medium : 4610 (0x1202)

  59. Format : PGS

  60. Muxing mode : zlib

  61. Codec ID : S_HDMV/PGS

  62. Codec ID/Info : Picture based subtitle format used on BDs/HD-DVDs

  63. Duration : 1 h 34 min

  64. Bit rate : 12.9 kb/s

  65. Count of elements : 1312

  66. Stream size : 8.74 MiB (0%)

  67. Title : chs

  68. Language : Chinese

  69. Default : Yes

  70. Forced : No

  71. Original source medium : Blu-ray


  72. Text #2

  73. ID : 4

  74. ID in the original source medium : 4611 (0x1203)

  75. Format : PGS

  76. Muxing mode : zlib

  77. Codec ID : S_HDMV/PGS

  78. Codec ID/Info : Picture based subtitle format used on BDs/HD-DVDs

  79. Duration : 1 h 34 min

  80. Bit rate : 13.0 kb/s

  81. Count of elements : 1312

  82. Stream size : 8.86 MiB (0%)

  83. Title : cht

  84. Language : Chinese

  85. Default : No

  86. Forced : No

  87. Original source medium : Blu-ray


  88. Text #3

  89. ID : 5

  90. ID in the original source medium : 4608 (0x1200)

  91. Format : PGS

  92. Muxing mode : zlib

  93. Codec ID : S_HDMV/PGS

  94. Codec ID/Info : Picture based subtitle format used on BDs/HD-DVDs

  95. Duration : 1 h 31 min

  96. Bit rate : 18.9 kb/s

  97. Count of elements : 1475

  98. Stream size : 12.3 MiB (0%)

  99. Title : kor

  100. Language : Korean

  101. Default : No

  102. Forced : No

  103. Original source medium : Blu-ray


  104. Text #4

  105. ID : 6

  106. ID in the original source medium : 4609 (0x1201)

  107. Format : PGS

  108. Muxing mode : zlib

  109. Codec ID : S_HDMV/PGS

  110. Codec ID/Info : Picture based subtitle format used on BDs/HD-DVDs

  111. Duration : 1 h 32 min

  112. Bit rate : 24.9 kb/s

  113. Count of elements : 1404

  114. Stream size : 16.4 MiB (0%)

  115. Title : eng

  116. Language : English

  117. Default : No

  118. Forced : No

  119. Original source medium : Blu-ray


  120. Menu

  121. 00:00:00.000 : 第 01 章

  122. 00:04:09.333 : 第 02 章

  123. 00:08:56.833 : 第 03 章

  124. 00:13:25.416 : 第 04 章

  125. 00:21:28.416 : 第 05 章

  126. 00:26:16.833 : 第 06 章

  127. 00:32:38.625 : 第 07 章

  128. 00:39:31.833 : 第 08 章

  129. 00:44:59.833 : 第 09 章

  130. 00:49:49.833 : 第 10 章

  131. 00:55:14.416 : 第 11 章

  132. 01:00:05.416 : 第 12 章

  133. 01:05:29.416 : 第 13 章

  134. 01:14:16.416 : 第 14 章

  135. 01:26:49.416 : 第 15 章

  136. 01:34:50.833 : 第 16 章


文件下载


除非特别注明,本文『色即是空[中文字幕].Sex.Is.Zero.2002.1080p.BluRay.x265.10bit.DTS 6.66GB』来源于互联网机器人自动抓取,非本站原创。 浮游电影网不对本文拥有版权,如有侵犯,请联系邮箱:fuyouu#yandex.com[#换成@]投诉。我们会在15个工作日内删除。 但烦请转载时请标明出处:“本文转载于『浮游电影网』,原文地址:https://www.fuyouu.com/13838.html

评论吧骚年!

发表你的见解   

昵称*

E-mail*(建议输入,以便收到博主回复的提示邮件)

验证码*

您可以使用eMule或eMule Mod(Windows)、aMule(Win、Linux、Mac)等软件下载eD2k链接。。
eMule收藏集(.emulecollection)文件是您选中的所有链接的列表文件。eMule可以直接下载它们。
按住SHIFT键选择可以选中多个选择框。
可用文件名和大小选择器来选择文件。
文件名选择器帮您根据文件名称或后缀来选择文件。不分大小写。
符号使用:
和:空格( )、+
不包含:-
或:|
转义:一对英文引号("");
匹配开头:^
匹配结尾:$
例如:
选中所有名称中包含有“eMule”或“0.49c”字眼,但不包含有“exe”字眼的:emule|0.49c -exe
选中所有名称的开头是“eMule”,结尾是“0.49c”的:^emule 0.49c$
选中所有名称中带有“eMule 0.49c”的(必须是“eMule 0.49c”,中间没有别的字符,不能是“eMule fake 0.49c”),需要转义:"emule 0.49c"
大小选择器帮您根据文件大小选择文件。