当前位置: 首页 >> 欧美电影 >> 幸运符[中文字幕].The.Lucky.One.2012.1080p.BluRay.DTS.x265-10bit 11.08GB >> 正文

幸运符[中文字幕].The.Lucky.One.2012.1080p.BluRay.DTS.x265-10bit 11.08GB

2021年08月21日 23:13:37     电影发布:来源于网络     电影分类:欧美电影     评论(0)    

幸运符[中文字幕].The.Lucky.One.2012.1080p.BluRay.DTS.x265 10bit 11.08GB 爱情片 剧情片 欧美电影  第1张

◎译 名 幸运符 / 幸运缘是你(港) / 平安符 / 追梦旅程 / 幸运儿

◎片 名 The Lucky One

◎年 代 2012

◎产 地 美国

◎类 别 剧情 / 爱情

◎语 言 英语

◎上映日期 2012-04-20(美国)

◎IMDb链接 https://www.imdb.com/title/tt1327194/

◎豆瓣评分 6.6/10 (10601人评价)

◎豆瓣链接 https://movie.douban.com/subject/3291376/

◎片 长 101分钟

◎导 演 斯科特·希克斯 Scott Hicks (id:1032377)

◎编 剧 尼古拉斯·斯帕克斯 Nicholas Sparks (id:1013927)

◎演 员 扎克·埃夫隆 Zac Efron (id:1016676)

泰勒·席林 Taylor Schilling (id:1244878)

布莱思·丹纳 Blythe Danner (id:1007014)

杰·R.弗格森 Jay R. Ferguson (id:1087991)

亚当·勒费弗 Adam LeFevre (id:1105435)

马克·艾沙姆 Mark Isham (id:1050293)

◎标 签 爱情 / 美国 / 温情 / 2012 / 浪漫 / 小说改编 / 剧情 / 美国爱情

◎简 介

罗根(扎克?埃夫隆 Zac Efron 饰)是一名美国海军陆战队的中士,在战场上意外获得的一张女孩的照片。罗根三番两次的从伊拉克的战斗任务中死里逃生,战友们都称她是他的幸运女神。身边的战友都在意外的战斗破坏中阵亡,只有罗根幸存下来,因此罗根也把这张照片看成了他的幸运符,并对照片中的女孩心存感激之情。服役结束后,他回到了美国本土,决心找到这名照片上的陌生女孩。于是罗根带着猎狗步行横穿了多个美国的城市,四处询问后,终于找到了照片上这名叫做贝丝(泰勒?席林 Taylor Schilling 饰)的女孩的住处。在机缘巧合下罗根应聘成了贝丝所经营的动物会所的员工。两人在朝夕相处中渐渐相熟相知,罗根也在渐渐熟悉了贝丝复杂的生活后,对她产生了除去感谢之外的爱恋之情…

改编自“美国男琼瑶”尼古拉斯?斯帕克斯的小说《幸运符》,又名《分手信》。该片是其被搬上银幕的第七本...

◎获奖情况 (共6项)

第14届美国青少年选择奖 (2012)

最佳剧情片

最佳剧情片男演员

└──扎克·埃夫隆 (id:1016676)

最佳爱情片(提名)

最佳爱情片男演员

└──扎克·埃夫隆 (id:1016676)

最佳爱情片女演员(提名)

└──泰勒·席林 (id:1244878)

最佳电影吻戏(提名)

  1. ##### MediaInfo ######

  2. General

  3. Unique ID : 142391062259410433128659761738366289124 (0x6B1F85644F376C44605E0F63845784E4)

  4. Complete name : The.Lucky.One.2012.1080p.BluRay.DTS.x265-10bit-10007@BBQDDQ.COM.mkv

  5. Format : Matroska

  6. Format version : Version 4

  7. File size : 11.1 GiB

  8. Duration : 1 h 40 min

  9. Overall bit rate : 15.7 Mb/s

  10. Movie name : The Lucky One 2012 1080p BluRay DTS x265-10bit-10007@BBQDDQ.COM

  11. Encoded date : UTC 2021-08-20 00:18:36

  12. Writing application : mkvmerge v38.0.0 ('The Silent Type') 64-bit

  13. Writing library : libebml v1.3.9 + libmatroska v1.5.2


  14. Video

  15. ID : 1

  16. Format : HEVC

  17. Format/Info : High Efficiency Video Coding

  18. Format profile : Main 10@L5.1@High

  19. Codec ID : V_MPEGH/ISO/HEVC

  20. Duration : 1 h 40 min

  21. Bit rate : 14.2 Mb/s

  22. Width : 1 920 pixels

  23. Height : 800 pixels

  24. Display aspect ratio : 2.40:1

  25. Frame rate mode : Constant

  26. Frame rate : 23.976 (24000/1001/53354) FPS

  27. Color space : YUV

  28. Chroma subsampling : 4:2:0

  29. Bit depth : 10 bits

  30. Bits/(Pixel*Frame) : 0.385

  31. Stream size : 10.00 GiB (90%)

  32. Title : veryzayin@HDSky

  33. Writing library : x265 - H.265/HEVC codec

  34. Default : Yes

  35. Forced : No


  36. Audio

  37. ID : 2

  38. Format : DTS

  39. Format/Info : Digital Theater Systems

  40. Codec ID : A_DTS

  41. Duration : 1 h 40 min

  42. Bit rate mode : Constant

  43. Bit rate : 1 509 kb/s

  44. Channel(s) : 6 channels

  45. Channel layout : C L R Ls Rs LFE

  46. Sampling rate : 48.0 kHz

  47. Frame rate : 93.750 FPS (512 SPF)

  48. Bit depth : 24 bits

  49. Compression mode : Lossy

  50. Stream size : 1.06 GiB (10%)

  51. Title : English

  52. Language : English

  53. Default : Yes

  54. Forced : No


  55. Text #1

  56. ID : 3

  57. Format : PGS

  58. Muxing mode : zlib

  59. Codec ID : S_HDMV/PGS

  60. Codec ID/Info : Picture based subtitle format used on BDs/HD-DVDs

  61. Duration : 1 h 40 min

  62. Bit rate : 22.7 kb/s

  63. Count of elements : 2018

  64. Stream size : 16.2 MiB (0%)

  65. Title : CHS

  66. Language : Chinese

  67. Default : Yes

  68. Forced : No


  69. Text #2

  70. ID : 4

  71. Format : PGS

  72. Muxing mode : zlib

  73. Codec ID : S_HDMV/PGS

  74. Codec ID/Info : Picture based subtitle format used on BDs/HD-DVDs

  75. Duration : 1 h 40 min

  76. Bit rate : 23.2 kb/s

  77. Count of elements : 2018

  78. Stream size : 16.6 MiB (0%)

  79. Title : CHT

  80. Language : Chinese

  81. Default : No

  82. Forced : No


  83. Menu

  84. 00:00:00.000 : en:Chapter 01

  85. 00:10:27.585 : en:Chapter 02

  86. 00:20:08.791 : en:Chapter 03

  87. 00:28:47.476 : en:Chapter 04

  88. 00:39:55.602 : en:Chapter 05

  89. 00:50:50.047 : en:Chapter 06

  90. 01:00:29.000 : en:Chapter 07

  91. 01:09:19.405 : en:Chapter 08

  92. 01:20:21.316 : en:Chapter 09

  93. 01:29:14.891 : en:Chapter 10

  94. 01:37:16.164 : en:Chapter 11


文件下载


除非特别注明,本文『幸运符[中文字幕].The.Lucky.One.2012.1080p.BluRay.DTS.x265-10bit 11.08GB』来源于互联网机器人自动抓取,非本站原创。 浮游电影网不对本文拥有版权,如有侵犯,请联系邮箱:fuyouu#yandex.com[#换成@]投诉。我们会在15个工作日内删除。 但烦请转载时请标明出处:“本文转载于『浮游电影网』,原文地址:https://www.fuyouu.com/13815.html

评论吧骚年!

发表你的见解   

昵称*

E-mail*(建议输入,以便收到博主回复的提示邮件)

验证码*

您可以使用eMule或eMule Mod(Windows)、aMule(Win、Linux、Mac)等软件下载eD2k链接。。
eMule收藏集(.emulecollection)文件是您选中的所有链接的列表文件。eMule可以直接下载它们。
按住SHIFT键选择可以选中多个选择框。
可用文件名和大小选择器来选择文件。
文件名选择器帮您根据文件名称或后缀来选择文件。不分大小写。
符号使用:
和:空格( )、+
不包含:-
或:|
转义:一对英文引号("");
匹配开头:^
匹配结尾:$
例如:
选中所有名称中包含有“eMule”或“0.49c”字眼,但不包含有“exe”字眼的:emule|0.49c -exe
选中所有名称的开头是“eMule”,结尾是“0.49c”的:^emule 0.49c$
选中所有名称中带有“eMule 0.49c”的(必须是“eMule 0.49c”,中间没有别的字符,不能是“eMule fake 0.49c”),需要转义:"emule 0.49c"
大小选择器帮您根据文件大小选择文件。