当前位置: 首页 >> 港台电影 >> 打工狂想曲[国语配音/粤语配音].Gift.from.Heaven.1989.1080p.BluRay.x265.10bit.DTS.2Audio 6.31GB >> 正文

打工狂想曲[国语配音/粤语配音].Gift.from.Heaven.1989.1080p.BluRay.x265.10bit.DTS.2Audio 6.31GB

2021年08月21日 23:10:26     电影发布:来源于网络     电影分类:港台电影     评论(0)    

打工狂想曲[国语配音/粤语配音].Gift.from.Heaven.1989.1080p.BluRay.x265.10bit.DTS.2Audio 6.31GB 喜剧片 港台电影  第1张

◎译 名 打工狂想曲 / A Modern Daydream / Gift from Heaven

◎年 代 1989

◎产 地 中国香港

◎类 别 喜剧

◎语 言 粤语

◎上映日期 1989-10-27(中国香港)

◎IMDb链接 https://www.imdb.com/title/tt0097141/

◎豆瓣评分 7.1/10 (3134人评价)

◎豆瓣链接 https://movie.douban.com/subject/3211323/

◎片 长 94 分钟

◎编 剧 方志豪 Chi-Ho Fong (id:1418703)

◎演 员 郑裕玲 Carol 'Do Do' Cheng (id:1070060)

王祖贤 Joey Wong (id:1166896)

林忆莲 Sandy Lam (id:1046422)

郑浩南 Mark Cheng (id:1028605)

尔冬升 Tung-shing Yee (id:1274289)

林保怡 Bowie Lam (id:1274606)

杜德伟 Alex To (id:1006852)

威利 Lei Wai (id:1409145)

卢雄 Paul Lo (id:1377025)

薛芷伦 Sit Chi Lun Fanny (id:1275456)

罗兰 Lan Law (id:1054340)

刘以达 Tats Lau (id:1034328)

刘以达 Tats Lau (id:1034328)

◎标 签 王祖贤 / 香港 / 喜剧 / 香港电影 / 郑裕玲 / 林忆莲 / 1989 / 女性

◎简 介

贝奇,安吉和辛迪是在同一间公司里工作的同事,私底下三个姑娘亦是感情十分要好的好友。一次偶然中,三人在公司里捡到了一大袋钱,鬼迷心窍的她们将钱拿走藏在了贝奇的家中。虽然脑袋里有一万个想要用这笔钱来买的东西,但三人并不敢在毫不知情的情况下轻易的动用这笔钱。

原来,这笔巨款的主人是公司的总经理康大维,他贪污受贿假公济私的举动不慎曝光,知情者于是向其勒索了一笔巨款,哪知道却被贝奇等人半路拿走。勒索者眼看着没有拿到钱,于是将康大维的所作所为举报给了警方,康大维随即接受了调查。得知这一事实,三个姑娘的心简直提到了嗓子眼,那一带钱也仿佛不是钱了,而是一颗随时都会爆炸的定时炸弹。

  1. ##### MediaInfo ######

  2. General

  3. Unique ID : 48660489556068292927073269947893622793 (0x249BAB5D6F66C6B89D90098116852809)

  4. Complete name : Gift.from.Heaven.1989.1080p.BluRay.x265.10bit.DTS.2Audio-10017@BBQDDQ.COM.mkv

  5. Format : Matroska

  6. Format version : Version 4

  7. File size : 6.31 GiB

  8. Duration : 1 h 34 min

  9. Overall bit rate : 9 549 kb/s

  10. Encoded date : UTC 2021-08-21 00:09:28

  11. Writing application : mkvmerge v59.0.0 ('Shining Star') 64-bit

  12. Writing library : libebml v1.4.2 + libmatroska v1.6.4


  13. Video

  14. ID : 1

  15. Format : HEVC

  16. Format/Info : High Efficiency Video Coding

  17. Format profile : Main 10@L5@Main

  18. Codec ID : V_MPEGH/ISO/HEVC

  19. Duration : 1 h 34 min

  20. Bit rate : 6 467 kb/s

  21. Width : 1 920 pixels

  22. Height : 1 080 pixels

  23. Display aspect ratio : 16:9

  24. Frame rate mode : Constant

  25. Frame rate : 24.000 FPS

  26. Color space : YUV

  27. Chroma subsampling : 4:2:0

  28. Bit depth : 10 bits

  29. Bits/(Pixel*Frame) : 0.130

  30. Stream size : 4.27 GiB (68%)

  31. Writing library : x265 3.4+1-g07e3381df+31:[Windows][GCC 10.1.0][64 bit] Yuuki 10bit+8bit+12bit

  32. Encoding settings : rc=crf / crf=23.0000 / qcomp=0.70 / qpstep=4 / stats-write=0 / stats-read=0 / no-lossless / no-cu-lossless / aq-mode=3 / aq-strength=0.60 / cbqpoffs=0 / crqpoffs=0 / ipratio=1.40 / pbratio=1.30 / psy-rd=2.00 / psy-rdoq=0.00 / deblock=0:0 / ref=6 / limit-refs=1 / no-limit-modes / bframes=8 / b-adapt=2 / bframe-bias=0 / b-pyramid / b-intra / weightp / weightb / min-keyint=24 / max-keyint=240 / rc-lookahead=24 / gop-lookahead=0 / NTMzNTQ=uuDQuD2mJt9fsCf / scenecut=40 / hist-scenecut=0 / radl=0 / max-cu-size=64 / min-cu-size=8 / me=3 / subme=7 / merange=48 / rdoq-level=0 / rd=4 / rdpenalty=0 / dynamic-rd=0.00 / no-rd-refine / ----- / cutree / sao / no-rect / no-amp / no-open-gop / wpp / no-pmode / no-pme / no-psnr / no-ssim / nr-intra=0 / nr-inter=0 / no-constrained-intra / no-strong-intra-smoothing / max-tu-size=32 / tu-inter-depth=1 / tu-intra-depth=1 / limit-tu=0 / qg-size=32 / qpmax=69 / qpmin=0 / ----- / cpuid=533541111039 / frame-threads=4 / numa-pools=+ / log-level=2 / input-csp=1 / input-res=1920x1080 / interlace=0 / level-idc=0 / high-tier=1 / uhd-bd=0 / no-allow-non-conformance / no-repeat-headers / aud / no-hrd / info / hash=0 / no-temporal-layers / lookahead-slices=0 / no-splice / no-intra-refresh / no-ssim-rd / signhide / no-tskip / max-merge=3 / temporal-mvp / no-frame-dup / no-hme / no-analyze-src-pics / no-sao-non-deblock / selective-sao=4 / early-skip / rskip / no-fast-intra / no-tskip-fast / no-splitrd-skip / zone-count=0 / no-strict-cbr / no-rc-grain / no-const-vbv / sar=0 / overscan=0 / videoformat=5 / range=0 / colorprim=2 / transfer=2 / colormatrix=2 / chromaloc=0 / display-window=0 / cll=0,0 / min-luma=0 / max-luma=1023 / log2-max-poc-lsb=8 / vui-timing-info / vui-hrd-info / slices=1 / no-opt-qp-pps / no-opt-ref-list-length-pps / no-multi-pass-opt-rps / scenecut-bias=0.05 / hist-threshold=0.01 / no-opt-cu-delta-qp / no-aq-motion / no-hdr10 / no-hdr10-opt / no-dhdr10-opt / no-idr-recovery-sei / analysis-reuse-level=0 / analysis-save-reuse-level=0 / analysis-load-reuse-level=0 / scale-factor=0 / refine-intra=0 / refine-inter=0 / refine-mv=1 / refine-ctu-distortion=0 / no-limit-sao / ctu-info=0 / no-lowpass-dct / refine-analysis-type=0 / copy-pic=1 / max-ausize-factor=1.0 / no-dynamic-refine / no-single-sei / no-hevc-aq / no-svt / no-field / qp-adaptation-range=1.00 / no-scenecut-aware-qpconformance-window-offsets / right=0 / bottom=0 / NTMzNTQ= / decoder-max-rate=0

  33. Language : English

  34. Default : Yes

  35. Forced : No


  36. Audio #1

  37. ID : 2

  38. Format : DTS

  39. Format/Info : Digital Theater Systems

  40. Codec ID : A_DTS

  41. Duration : 1 h 34 min

  42. Bit rate mode : Constant

  43. Bit rate : 1 510 kb/s

  44. Channel(s) : 6 channels

  45. Channel layout : C L R Ls Rs LFE

  46. Sampling rate : 48.0 kHz

  47. Frame rate : 93.750 FPS (512 SPF)

  48. Bit depth : 24 bits

  49. Compression mode : Lossy

  50. Stream size : 1 022 MiB (16%)

  51. Title : Cantonese

  52. Language : Chinese

  53. Default : Yes

  54. Forced : No


  55. Audio #2

  56. ID : 3

  57. Format : DTS

  58. Format/Info : Digital Theater Systems

  59. Codec ID : A_DTS

  60. Duration : 1 h 34 min

  61. Bit rate mode : Constant

  62. Bit rate : 1 510 kb/s

  63. Channel(s) : 6 channels

  64. Channel layout : C L R Ls Rs LFE

  65. Sampling rate : 48.0 kHz

  66. Frame rate : 93.750 FPS (512 SPF)

  67. Bit depth : 24 bits

  68. Compression mode : Lossy

  69. Stream size : 1 022 MiB (16%)

  70. Title : Mandarin

  71. Language : Chinese

  72. Default : No

  73. Forced : No


  74. Text #1

  75. ID : 4

  76. Format : PGS

  77. Muxing mode : zlib

  78. Codec ID : S_HDMV/PGS

  79. Codec ID/Info : Picture based subtitle format used on BDs/HD-DVDs

  80. Duration : 1 h 29 min

  81. Bit rate : 46.4 kb/s

  82. Count of elements : 2179

  83. Stream size : 29.7 MiB (0%)

  84. Title : cht

  85. Language : Chinese

  86. Default : No

  87. Forced : No


  88. Text #2

  89. ID : 5

  90. Format : PGS

  91. Muxing mode : zlib

  92. Codec ID : S_HDMV/PGS

  93. Codec ID/Info : Picture based subtitle format used on BDs/HD-DVDs

  94. Duration : 1 h 29 min

  95. Bit rate : 43.4 kb/s

  96. Count of elements : 2179

  97. Stream size : 27.7 MiB (0%)

  98. Title : chs

  99. Language : Chinese

  100. Default : Yes

  101. Forced : No


  102. Text #3

  103. ID : 6

  104. Format : PGS

  105. Muxing mode : zlib

  106. Codec ID : S_HDMV/PGS

  107. Codec ID/Info : Picture based subtitle format used on BDs/HD-DVDs

  108. Duration : 1 h 29 min

  109. Bit rate : 41.2 kb/s

  110. Count of elements : 2149

  111. Stream size : 26.4 MiB (0%)

  112. Title : eng

  113. Language : English

  114. Default : No

  115. Forced : No


  116. Menu

  117. 00:00:00.000 : :第 01 章

  118. 00:07:17.333 : :第 02 章

  119. 00:19:12.542 : :第 03 章

  120. 00:26:44.625 : :第 04 章

  121. 00:35:50.708 : :第 05 章

  122. 00:44:08.167 : :第 06 章

  123. 00:50:39.625 : :第 07 章

  124. 01:02:05.750 : :第 08 章

  125. 01:07:54.458 : :第 09 章

  126. 01:14:19.833 : :第 10 章

  127. 01:21:45.500 : :第 11 章

  128. 01:27:21.875 : :第 12 章


文件下载


除非特别注明,本文『打工狂想曲[国语配音/粤语配音].Gift.from.Heaven.1989.1080p.BluRay.x265.10bit.DTS.2Audio 6.31GB』来源于互联网机器人自动抓取,非本站原创。 浮游电影网不对本文拥有版权,如有侵犯,请联系邮箱:fuyouu#yandex.com[#换成@]投诉。我们会在15个工作日内删除。 但烦请转载时请标明出处:“本文转载于『浮游电影网』,原文地址:https://www.fuyouu.com/13812.html

评论吧骚年!

发表你的见解   

昵称*

E-mail*(建议输入,以便收到博主回复的提示邮件)

验证码*

您可以使用eMule或eMule Mod(Windows)、aMule(Win、Linux、Mac)等软件下载eD2k链接。。
eMule收藏集(.emulecollection)文件是您选中的所有链接的列表文件。eMule可以直接下载它们。
按住SHIFT键选择可以选中多个选择框。
可用文件名和大小选择器来选择文件。
文件名选择器帮您根据文件名称或后缀来选择文件。不分大小写。
符号使用:
和:空格( )、+
不包含:-
或:|
转义:一对英文引号("");
匹配开头:^
匹配结尾:$
例如:
选中所有名称中包含有“eMule”或“0.49c”字眼,但不包含有“exe”字眼的:emule|0.49c -exe
选中所有名称的开头是“eMule”,结尾是“0.49c”的:^emule 0.49c$
选中所有名称中带有“eMule 0.49c”的(必须是“eMule 0.49c”,中间没有别的字符,不能是“eMule fake 0.49c”),需要转义:"emule 0.49c"
大小选择器帮您根据文件大小选择文件。