当前位置: 首页 >> 海外电影 >> 比尔和泰德寻歌记[双语字幕].Bill.&.Ted.Face.the.Music.2020.1080p.BluRay.DTS.x265-10bit 6.57GB >> 正文

比尔和泰德寻歌记[双语字幕].Bill.&.Ted.Face.the.Music.2020.1080p.BluRay.DTS.x265-10bit 6.57GB

2021年08月21日 23:06:58     电影发布:来源于网络     电影分类:海外电影     评论(0)    

比尔和泰德寻歌记[双语字幕].Bill.&.Ted.Face.the.Music.2020.1080p.BluRay.DTS.x265 10bit 6.57GB 音乐片 科幻片 喜剧片 海外电影  第1张

◎译 名 比尔和泰德寻歌记 / 阿比阿弟寻歌大冒险(台)

◎片 名 Bill & Ted Face the Music

◎年 代 2020

◎产 地 巴哈马 / 美国

◎类 别 喜剧 / 科幻 / 音乐

◎语 言 德语 / 英语

◎上映日期 2020-08-28(美国)

◎IMDb链接 https://www.imdb.com/title/tt1086064/

◎豆瓣评分 5.8/10 (1237人评价)

◎豆瓣链接 https://movie.douban.com/subject/3012034/

◎片 长 91分钟

◎导 演 迪恩·帕里索 Dean Parisot (id:1293954)

◎编 剧 克里斯·马瑟森 Chris Matheson (id:1329769)

艾德·索罗门 Ed Solomon (id:1050173)

◎演 员 基努·里维斯 Keanu Reeves (id:1008070)

萨玛拉·维文 Samara Weaving (id:1267671)

安东尼·卡里根 Anthony Carrigan (id:1352164)

亚历克斯·温特 Alex Winter (id:1009331)

威廉姆·赛德勒 William Sadler (id:1000095)

杰玛·梅斯 Jayma Mays (id:1009237)

埃瑞恩·海耶斯 Erinn Hayes (id:1078179)

吉莉恩·贝尔 Jillian Bell (id:1335295)

布里盖特·伦迪·佩恩 Brigette Lundy-Paine (id:1379157)

贝克·班尼特 Beck Bennett (id:1335427)

卡迪小子 Kid Cudi (id:1273118)

小哈尔·兰登 Hal Landon Jr. (id:1111337)

艾米·斯托克-波因顿 Amy Stock-Poynton (id:1157417)

史蒂文·索德伯格 Steven Soderbergh (id:1054400)

马克·艾沙姆 Mark Isham (id:1050293)

◎标 签 喜剧 / 科幻 / 美国 / 基努里维斯 / 2020 / 音乐 / KeanuReeves / 美国电影

◎简 介

此前基努·里维斯、亚历克斯·温特已确认联手回归喜剧[比尔和泰德]系列第三部[比尔和泰德寻歌记],导演迪恩·帕里索特,该系列原编剧克里斯·马瑟森、艾德·索罗门操刀剧本。但近日里维斯却对该片能否如期而至表示不太确定。里维斯是在接受“雅虎娱乐”采访时透露的这一消息,他称由于一些幕后问题,该片能否照原计划进行现在并不确定。里维斯表示:“我们为这部片子已经等了很长时间,但现在还是存在一些‘挑战’。我很喜欢这个系列的这些角色,新片剧本已经就绪,故事很棒,但在‘资金、版权、合同’上还存在一些问题。”

[比尔和泰德]系列前两部[比尔和泰德历险记]、[比尔和泰德畅游鬼门关]分别于1989年、1991年上映,讲述了两个高中生穿越时空经历冒险的故事。新片则围绕两个已人到中年的好友再次开启时空探险、寻找“救命歌曲”展开。米高梅负责北美发行。

◎获奖情况 (共4项)

第8届美国化妆及发型设计工会奖 (2021)

电影类最佳现代戏化妆(提名)

电影类最佳现代戏发型设计(提名)

电影类最佳年代戏化妆(提名)

电影类最佳特效化妆(提名)

  1. ##### MediaInfo ######

  2. General

  3. Unique ID : 136693345895174052338701075749708581750 (0x66D62E4949F4F6B5C10F6FC70E8D4B76)

  4. Complete name : Bill.&.Ted.Face.the.Music.2020.1080p.BluRay.DTS.x265-10bit-10007@BBQDDQ.COM.mkv

  5. Format : Matroska

  6. Format version : Version 4

  7. File size : 6.57 GiB

  8. Duration : 1 h 31 min

  9. Overall bit rate : 10.2 Mb/s

  10. Movie name : Bill & Ted Face the Music 2020 1080p BluRay DTS x265-10bit-10007@BBQDDQ.COM

  11. Encoded date : UTC 2021-08-21 00:01:45

  12. Writing application : mkvmerge v38.0.0 ('The Silent Type') 64-bit

  13. Writing library : libebml v1.3.9 + libmatroska v1.5.2


  14. Video

  15. ID : 1

  16. Format : HEVC

  17. Format/Info : High Efficiency Video Coding

  18. Format profile : Main 10@L5.1@High

  19. Codec ID : V_MPEGH/ISO/HEVC

  20. Duration : 1 h 31 min

  21. Bit rate : 8 613 kb/s

  22. Width : 1 920 pixels

  23. Height : 804 pixels

  24. Display aspect ratio : 2.40:1

  25. Frame rate mode : Constant

  26. Frame rate : 23.976 (24000/1001/53354) FPS

  27. Color space : YUV

  28. Chroma subsampling : 4:2:0

  29. Bit depth : 10 bits

  30. Bits/(Pixel*Frame) : 0.233

  31. Stream size : 5.53 GiB (84%)

  32. Title : veryzayin@HDSky

  33. Writing library : x265 - H.265/HEVC codec

  34. Default : Yes

  35. Forced : No


  36. Audio

  37. ID : 2

  38. Format : DTS

  39. Format/Info : Digital Theater Systems

  40. Codec ID : A_DTS

  41. Duration : 1 h 31 min

  42. Bit rate mode : Constant

  43. Bit rate : 1 509 kb/s

  44. Channel(s) : 6 channels

  45. Channel layout : C L R Ls Rs LFE

  46. Sampling rate : 48.0 kHz

  47. Frame rate : 93.750 FPS (512 SPF)

  48. Bit depth : 24 bits

  49. Compression mode : Lossy

  50. Stream size : 992 MiB (15%)

  51. Title : English

  52. Language : English

  53. Default : Yes

  54. Forced : No


  55. Text #1

  56. ID : 3

  57. Format : PGS

  58. Muxing mode : zlib

  59. Codec ID : S_HDMV/PGS

  60. Codec ID/Info : Picture based subtitle format used on BDs/HD-DVDs

  61. Duration : 1 h 31 min

  62. Bit rate : 35.5 kb/s

  63. Count of elements : 3032

  64. Stream size : 23.1 MiB (0%)

  65. Title : CHS

  66. Language : Chinese

  67. Default : Yes

  68. Forced : No


  69. Text #2

  70. ID : 4

  71. Format : PGS

  72. Muxing mode : zlib

  73. Codec ID : S_HDMV/PGS

  74. Codec ID/Info : Picture based subtitle format used on BDs/HD-DVDs

  75. Duration : 1 h 31 min

  76. Bit rate : 36.2 kb/s

  77. Count of elements : 3032

  78. Stream size : 23.6 MiB (0%)

  79. Title : CHT

  80. Language : Chinese

  81. Default : No

  82. Forced : No


  83. Text #3

  84. ID : 5

  85. Format : PGS

  86. Muxing mode : zlib

  87. Codec ID : S_HDMV/PGS

  88. Codec ID/Info : Picture based subtitle format used on BDs/HD-DVDs

  89. Duration : 1 h 31 min

  90. Bit rate : 62.0 kb/s

  91. Count of elements : 2981

  92. Stream size : 40.4 MiB (1%)

  93. Title : CHS&ENG

  94. Language : Chinese

  95. Default : No

  96. Forced : No


  97. Text #4

  98. ID : 6

  99. Format : PGS

  100. Muxing mode : zlib

  101. Codec ID : S_HDMV/PGS

  102. Codec ID/Info : Picture based subtitle format used on BDs/HD-DVDs

  103. Duration : 1 h 31 min

  104. Bit rate : 62.7 kb/s

  105. Count of elements : 2981

  106. Stream size : 40.9 MiB (1%)

  107. Title : CHT&ENG

  108. Language : Chinese

  109. Default : No

  110. Forced : No


  111. Menu

  112. 00:00:00.000 : en:Chapter 01

  113. 00:09:52.926 : en:Chapter 02

  114. 00:19:59.115 : en:Chapter 03

  115. 00:30:04.511 : en:Chapter 04

  116. 00:40:52.533 : en:Chapter 05

  117. 00:50:41.747 : en:Chapter 06

  118. 01:00:06.478 : en:Chapter 07

  119. 01:10:00.113 : en:Chapter 08

  120. 01:20:52.097 : en:Chapter 09


文件下载


除非特别注明,本文『比尔和泰德寻歌记[双语字幕].Bill.&.Ted.Face.the.Music.2020.1080p.BluRay.DTS.x265-10bit 6.57GB』来源于互联网机器人自动抓取,非本站原创。 浮游电影网不对本文拥有版权,如有侵犯,请联系邮箱:fuyouu#yandex.com[#换成@]投诉。我们会在15个工作日内删除。 但烦请转载时请标明出处:“本文转载于『浮游电影网』,原文地址:https://www.fuyouu.com/13809.html

评论吧骚年!

发表你的见解   

昵称*

E-mail*(建议输入,以便收到博主回复的提示邮件)

验证码*

您可以使用eMule或eMule Mod(Windows)、aMule(Win、Linux、Mac)等软件下载eD2k链接。。
eMule收藏集(.emulecollection)文件是您选中的所有链接的列表文件。eMule可以直接下载它们。
按住SHIFT键选择可以选中多个选择框。
可用文件名和大小选择器来选择文件。
文件名选择器帮您根据文件名称或后缀来选择文件。不分大小写。
符号使用:
和:空格( )、+
不包含:-
或:|
转义:一对英文引号("");
匹配开头:^
匹配结尾:$
例如:
选中所有名称中包含有“eMule”或“0.49c”字眼,但不包含有“exe”字眼的:emule|0.49c -exe
选中所有名称的开头是“eMule”,结尾是“0.49c”的:^emule 0.49c$
选中所有名称中带有“eMule 0.49c”的(必须是“eMule 0.49c”,中间没有别的字符,不能是“eMule fake 0.49c”),需要转义:"emule 0.49c"
大小选择器帮您根据文件大小选择文件。