当前位置: 首页 >> 国产电影 >> 天河[国语音轨].Tian.He.2014.1080p.HDR.WEB-DL.H265.AAC 1.76GB >> 正文

天河[国语音轨].Tian.He.2014.1080p.HDR.WEB-DL.H265.AAC 1.76GB

2021年08月21日 22:58:58     电影发布:来源于网络     电影分类:国产电影     评论(0)    

天河[国语音轨].Tian.He.2014.1080p.HDR.WEB DL.H265.AAC 1.76GB 剧情片 国产电影  第1张

◎译 名 天河 / The Galaxy On Earth

◎年 代 2014

◎产 地 中国大陆

◎类 别 剧情

◎语 言 汉语普通话 / 英语

◎上映日期 2014-11-15(中国大陆)

◎IMDb链接 https://www.imdb.com/title/tt6450182/

◎豆瓣评分 4.9/10 (2404人评价)

◎豆瓣链接 https://movie.douban.com/subject/25972494/

◎片 长 98分钟

◎导 演 宁海强 Haiqiang Ning (id:1316350)

沈东 Dong Shen (id:1274549)

◎编 剧 柳建伟 Jianwei Liu (id:1323302)

黄宏 Hong Huang (id:1313875)

◎演 员 李幼斌 Youbin Li (id:1274703)

俞飞鸿 Faye Yu (id:1014618)

段奕宏 Yihong Duan (id:1274291)

王若心 Ruoxin Wang (id:1316184)

赵有亮 Youliang Zhao (id:1313722)

黄梅莹 Meiying Huang (id:1316394)

高明 Ming Gao (id:1009107)

宋春丽 Chunli Song (id:1215394)

林妙可 Miaoke Lin (id:1011665)

吴军 Jun Wu (id:1274736)

林永健 Yongjian Lin (id:1274650)

濮存昕 Cunxin Pu (id:1274855)

姜昆 Kun Jiang (id:1313881)

小香玉 Xiangyu Xiao (id:1309875)

陈宝国 Baoguo Chen (id:1274584)

侯世甲 Shijia Hou (id:1333534)

江平 Ping Jiang (id:1275114)

刘欣 Xin Liu (id:1413597)

翟俊杰 Junjie Zhai (id:1314923)

◎标 签 电影 / 中国 / 2014 / 俞飞鸿 / 内地 / 南水北调 / 剧情 / 让你做梦

◎简 介

南水北调工程是中国历史上最伟大,亦是最艰难的惠民工程之一,董望川(李幼斌 饰)身为此工程的副总指挥,肩上背负着沉重的压力和来自各方面的殷切期望。董望川一心扑在工作上,其妻子周晓丹(俞飞鸿 饰)亦是如此,两人虽共处一室,却鲜少有能够见面的时候,更别说坐下来聊一聊天了,长此以往,夫妻两人之间的感情变得疏离淡漠起来。

与此同时,作为董望川最得意的门生和最得力的助手,江浩(段奕宏 饰)在利益面前选择了屈服,在前线最需要他的时候决定跳槽到一家私人企业,令董望川十分失望,而住在库区的居民们眷恋故土,不愿意迁走,成为了妨碍工程建设的最大阻力。

  1. ##### MediaInfo ######

  2. General

  3. Unique ID : 179041708746906610823046639435711332936 (0x86B22DC6F34EFBBC3851DA784BD54248)

  4. Complete name : 天河.Tian.He.2014.1080p.HDR.WEB-DL.H265.AAC-10006@BBQDDQ.COM.mkv

  5. Format : Matroska

  6. Format version : Version 4

  7. File size : 1.76 GiB

  8. Duration : 1 h 34 min

  9. Overall bit rate : 2 659 kb/s

  10. Encoded date : UTC 2021-08-07 13:44:25

  11. Writing application : mkvmerge v49.0.0 ('Sick Of Losing Soulmates') 64-bit

  12. Writing library : libebml v1.4.0 + libmatroska v1.6.1


  13. Video

  14. ID : 1

  15. Format : HEVC

  16. Format/Info : High Efficiency Video Coding

  17. Format profile : Main 10@L4@Main

  18. HDR format : SMPTE ST 2086, HDR10 compatible

  19. Codec ID : V_MPEGH/ISO/HEVC

  20. Duration : 1 h 34 min

  21. Bit rate : 2 533 kb/s

  22. Width : 1 920 pixels

  23. Height : 800 pixels

  24. Display aspect ratio : 2.40:1

  25. Frame rate mode : Constant

  26. Frame rate : 25.000 FPS

  27. Color space : YUV

  28. Chroma subsampling : 4:2:0

  29. Bit depth : 10 bits

  30. Bits/(Pixel*Frame) : 0.066

  31. Stream size : 1.67 GiB (95%)

  32. Default : Yes

  33. Forced : No

  34. Color range : Limited

  35. Color primaries : BT.2020

  36. Transfer characteristics : PQ

  37. Matrix coefficients : BT.2020 non-constant

  38. Mastering display color primaries : R: x=0.708000 y=0.292000, G: x=0.170000 y=0.797000, B: x=0.130000 y=0.046000, White point: x=0.312700 y=0.329000

  39. Mastering display luminance : min: 0.0000 cd/m2, max: 0 cd/m2


  40. Audio

  41. ID : 2

  42. Format : AAC LC

  43. Format/Info : Advanced Audio Codec Low Complexity

  44. Codec ID : A_AAC-2

  45. Duration : 1 h 34 min

  46. Bit rate : 124 kb/s

  47. Channel(s) : 2 channels

  48. Channel layout : L R

  49. Sampling rate : 44.1 kHz

  50. Frame rate : 43.066 FPS (1024 SPF)

  51. Compression mode : Lossy

  52. Stream size : 84.2 MiB (5%)

  53. Language : Chinese

  54. Default : Yes

  55. Forced : No



文件下载


除非特别注明,本文『天河[国语音轨].Tian.He.2014.1080p.HDR.WEB-DL.H265.AAC 1.76GB』来源于互联网机器人自动抓取,非本站原创。 浮游电影网不对本文拥有版权,如有侵犯,请联系邮箱:fuyouu#yandex.com[#换成@]投诉。我们会在15个工作日内删除。 但烦请转载时请标明出处:“本文转载于『浮游电影网』,原文地址:https://www.fuyouu.com/13803.html

评论吧骚年!

发表你的见解   

昵称*

E-mail*(建议输入,以便收到博主回复的提示邮件)

验证码*

您可以使用eMule或eMule Mod(Windows)、aMule(Win、Linux、Mac)等软件下载eD2k链接。。
eMule收藏集(.emulecollection)文件是您选中的所有链接的列表文件。eMule可以直接下载它们。
按住SHIFT键选择可以选中多个选择框。
可用文件名和大小选择器来选择文件。
文件名选择器帮您根据文件名称或后缀来选择文件。不分大小写。
符号使用:
和:空格( )、+
不包含:-
或:|
转义:一对英文引号("");
匹配开头:^
匹配结尾:$
例如:
选中所有名称中包含有“eMule”或“0.49c”字眼,但不包含有“exe”字眼的:emule|0.49c -exe
选中所有名称的开头是“eMule”,结尾是“0.49c”的:^emule 0.49c$
选中所有名称中带有“eMule 0.49c”的(必须是“eMule 0.49c”,中间没有别的字符,不能是“eMule fake 0.49c”),需要转义:"emule 0.49c"
大小选择器帮您根据文件大小选择文件。