当前位置: 首页 >> 国产电影 >> 法医宋慈.Forensic.Medicine.Song.Ci.2020.WEB-DL.4K.H265.AAC 9.77GB >> 正文

法医宋慈.Forensic.Medicine.Song.Ci.2020.WEB-DL.4K.H265.AAC 9.77GB

2021年08月21日 01:49:55     电影发布:来源于网络     电影分类:国产电影     评论(0)    

法医宋慈.Forensic.Medicine.Song.Ci.2020.WEB DL.4K.H265.AAC 9.77GB 古装片 悬疑片 国产电影  第1张

◎译 名 法医宋慈 / Forensic Medicine Song Ci

◎年 代 2020

◎产 地 中国大陆

◎类 别 悬疑 / 古装

◎语 言 汉语普通话

◎上映日期 2020-02-06(中国大陆)

◎IMDb链接 https://www.imdb.com/title/tt11798718/

◎豆瓣评分 5.8/10 (5295人评价)

◎豆瓣链接 https://movie.douban.com/subject/34964410/

◎片 长 105分钟

◎导 演 胡国瀚 Guohan Hu (id:1430871)

◎编 剧 夏天兰 Tianlan Xia (id:1432053)

胡国瀚 Guohan Hu (id:1430871)

◎演 员 于震 Zhen Yu (id:1275744)

许梦圆 Mengyuan Xu (id:1362595)

潘长江 Changjiang Pan (id:1274247)

胡浩帆 Hubert.Hu (id:1409428)

周中和 Zhonghe Zhou (id:1343200)

郑仕明 Shiming Zhen (id:1351987)

李秦 Qin Li (id:1431636)

童唯佳 Weijia Tong (id:1353570)

李德功常 Degongchang Li (id:1351988)

◎标 签 悬疑 / 推理 / 古装 / 犯罪 / 悬疑电影 / 网络大电影 / 大陆 / 2020

◎简 介

本片讲述了一夜之间二十七具尸体被悬挂当街,且都被抽去了骨头,死相诡谲。向来不信邪的宋慈以一种追求极致真相的态度与女助手雨墨深入调查。通过对死者关系网的盘查,宋慈发现这是起随机杀人案,有价值的是“27”这个数字,这与十年前的波旬教案有关,他向恩师耿知年请教,谁知当天二十七具尸体就在府衙中自燃,虽灰飞烟灭却有迹可寻,宋慈不得不怀疑这一切正和当年负责波旬教案的耿知年有关。与此同时,怀揣着隐秘身世的雨墨也已渐渐接近“真相”,那是她同样无法接受的真相……

  1. ##### MediaInfo ######

  2. General

  3. Complete name : Forensic.Medicine.Song.Ci.2020.WEB-DL.4K.H265.AAC-10015@BBQDDQ.COM.mp4

  4. Format : MPEG-4

  5. Format profile : Base Media

  6. Codec ID : isom (isom/iso2/mp41)

  7. File size : 9.76 GiB

  8. Duration : 1 h 45 min

  9. Overall bit rate mode : Variable

  10. Overall bit rate : 13.3 Mb/s

  11. Writing application : Lavf58.30.100


  12. Video

  13. ID : 1

  14. Format : HEVC

  15. Format/Info : High Efficiency Video Coding

  16. Format profile : Main@L5@Main

  17. Codec ID : hev1

  18. Codec ID/Info : High Efficiency Video Coding

  19. Duration : 1 h 45 min

  20. Bit rate : 13.1 Mb/s

  21. Width : 3 840 pixels

  22. Height : 1 640 pixels

  23. Display aspect ratio : 2.35:1

  24. Frame rate mode : Constant

  25. Frame rate : 24.000 FPS

  26. Color space : YUV

  27. Chroma subsampling : 4:2:0

  28. Bit depth : 8 bits

  29. Bits/(Pixel*Frame) : 0.087

  30. Stream size : 9.62 GiB (99%)

  31. Codec configuration box : hvcC


  32. Audio

  33. ID : 2

  34. Format : AAC LC

  35. Format/Info : Advanced Audio Codec Low Complexity

  36. Codec ID : mp4a-40-2

  37. Duration : 1 h 45 min

  38. Bit rate mode : Variable

  39. Bit rate : 192 kb/s

  40. Channel(s) : 2 channels

  41. Channel layout : L R

  42. Sampling rate : 44.1 kHz

  43. Frame rate : 43.066 FPS (1024 SPF)

  44. Compression mode : Lossy

  45. Stream size : 143 MiB (1%)

  46. Default : Yes

  47. Alternate group : 1


文件下载


除非特别注明,本文『法医宋慈.Forensic.Medicine.Song.Ci.2020.WEB-DL.4K.H265.AAC 9.77GB』来源于互联网机器人自动抓取,非本站原创。 浮游电影网不对本文拥有版权,如有侵犯,请联系邮箱:fuyouu#yandex.com[#换成@]投诉。我们会在15个工作日内删除。 但烦请转载时请标明出处:“本文转载于『浮游电影网』,原文地址:https://www.fuyouu.com/13785.html

评论吧骚年!

发表你的见解   

昵称*

E-mail*(建议输入,以便收到博主回复的提示邮件)

验证码*

您可以使用eMule或eMule Mod(Windows)、aMule(Win、Linux、Mac)等软件下载eD2k链接。。
eMule收藏集(.emulecollection)文件是您选中的所有链接的列表文件。eMule可以直接下载它们。
按住SHIFT键选择可以选中多个选择框。
可用文件名和大小选择器来选择文件。
文件名选择器帮您根据文件名称或后缀来选择文件。不分大小写。
符号使用:
和:空格( )、+
不包含:-
或:|
转义:一对英文引号("");
匹配开头:^
匹配结尾:$
例如:
选中所有名称中包含有“eMule”或“0.49c”字眼,但不包含有“exe”字眼的:emule|0.49c -exe
选中所有名称的开头是“eMule”,结尾是“0.49c”的:^emule 0.49c$
选中所有名称中带有“eMule 0.49c”的(必须是“eMule 0.49c”,中间没有别的字符,不能是“eMule fake 0.49c”),需要转义:"emule 0.49c"
大小选择器帮您根据文件大小选择文件。