当前位置: 首页 >> 国产电影 >> 你的婚礼[国语音轨/简繁字幕].My.Love.2021.WEB-DL.1080p.H265.DDP.5.1 3.82GB >> 正文

你的婚礼[国语音轨/简繁字幕].My.Love.2021.WEB-DL.1080p.H265.DDP.5.1 3.82GB

2021年08月21日 01:46:52     电影发布:来源于网络     电影分类:国产电影     评论(0)    

你的婚礼[国语音轨/简繁字幕].My.Love.2021.WEB DL.1080p.H265.DDP.5.1 3.82GB 爱情片 国产电影  第1张

◎译 名 你的婚礼 / My Love

◎年 代 2021

◎产 地 中国大陆

◎类 别 爱情

◎语 言 汉语普通话

◎上映日期 2021-04-30(中国大陆)

◎IMDb链接 https://www.imdb.com/title/tt14503918/

◎豆瓣评分 4.8/10 (134582人评价)

◎豆瓣链接 https://movie.douban.com/subject/34973399/

◎片 长 115分钟

◎导 演 韩天 Tian Han (id:1314722)

◎编 剧 张影 Ying Zhang (id:1365447)

焦婷婷 Tingting Jiao (id:1338896)

韩天 Tian Han (id:1314722)

◎演 员 许光汉 Greg Hsu (id:1364539)

章若楠 Ruonan Zhang (id:1397180)

丁冠森 Guansen Ding (id:1355327)

晏紫东 Zidong Yan (id:1362288)

郭丞 Cheng Guo (id:1410008)

王莎莎 Shasha Wang (id:1274647)

梁靖康 Jingkang Liang (id:1370070)

刘迅 Xun Liu (id:1370365)

陈佳妍 Jiayan Chen (id:1319246)

茹常虎 Ru Chang Hu (id:1378186)

王鹏 Peng Wang (id:1366073)

王鲁 Lu Wang (id:1348497)

虞海亮 Hailiang Yu (id:1442292)

梁浩 Hao Liang (id:1343081)

嘉泽 Claire (id:1437777)

王冠淇 Guanqi Wang (id:1387972)

徐一娢 Yihan Xu (id:1390430)

卜冠今 Guanjin Bu (id:1362971)

杜秀军 Xiujun Du (id:1389388)

常海波 Haibo Chang (id:1336857)

崔奕 Yi Cui (id:1337870)

孟秀 Xiu Meng (id:1330833)

刘军 Jun Liu (id:1397723)

张弘毅 Hongyi Zhang (id:1319593)

王长田 Changtian Wang (id:1356370)

曹晓北 Xiaobei Cao (id:1453465)

刘琼芳 Qiongfang Liu (id:1417977)

罗恩妮 Annie Lo (id:1378383)

赵珂 Ke Zhao (id:1457600)

陈建骐 Chien-Ci Chen (id:1316643)

朱琳 Lin Zhu (id:1378385)

何爽 Shuang He (id:1384718)

许力文 Li Wen Hsu (id:1362886)

张洪伟 Hongwei Zhang (id:1330645)

龙筱竹 Xiaozhu Long (id:1389654)

张金岩 Rocky Zhang (id:1401864)

◎标 签 爱情 / 青春 / 许光汉 / 初恋 / 校园 / 章若楠 / 婚礼 / 电影

◎简 介

游泳特长生周潇齐(许光汉 饰)在一次打架事件中,对初来乍到的转校生尤咏慈(章若楠 饰)一见钟情,周潇齐对尤咏慈默默守护,接踵而至的却是女孩的不告而别。随后的人生,周潇齐并没有考上大学,在做网管的间隙突然发现了尤咏慈的踪迹,于是周潇齐复读考上了尤咏慈的大学,为的只是再次站在她面前再续前缘。两人的相遇并没有像想象中那种甜蜜,“恋爱的时机”总是不属于周潇齐,尽管死党张放(丁冠森 饰)等人想尽办法帮助周潇齐追爱,可尤咏慈的身边已经有了学长(梁靖康 饰)的陪伴。毕业后的两人天各一方,命运却再次让他们相遇,此后的人生,15年的爱情长跑。你的婚礼,也是我的成人礼。

  1. ##### MediaInfo ######

  2. General

  3. Unique ID : 209171691838384405499189620099838023590 (0x9D5D00A2B94BF3B779EFBB8C102A97A6)

  4. Complete name : My.Love.2021.WEB-DL.1080p.H265.DDP.5.1-10015@BBQDDQ.COM.mkv

  5. Format : Matroska

  6. Format version : Version 4

  7. File size : 3.82 GiB

  8. Duration : 1 h 54 min

  9. Overall bit rate : 4 773 kb/s

  10. Encoded date : UTC 2021-08-19 21:05:55

  11. Writing application : mkvmerge v58.0.0 ('Supper's Ready') 64-bit

  12. Writing library : libebml v1.4.2 + libmatroska v1.6.4


  13. Video

  14. ID : 1

  15. Format : HEVC

  16. Format/Info : High Efficiency Video Coding

  17. Format profile : Main@L4@Main

  18. Codec ID : V_MPEGH/ISO/HEVC

  19. Duration : 1 h 54 min

  20. Bit rate : 4 323 kb/s

  21. Width : 1 920 pixels

  22. Height : 1 032 pixels

  23. Display aspect ratio : 1.85:1

  24. Frame rate mode : Constant

  25. Frame rate : 24.000 FPS

  26. Color space : YUV

  27. Chroma subsampling : 4:2:0

  28. Bit depth : 8 bits

  29. Bits/(Pixel*Frame) : 0.091

  30. Stream size : 3.46 GiB (91%)

  31. Default : Yes

  32. Forced : No


  33. Audio #1

  34. ID : 2

  35. Format : E-AC-3

  36. Format/Info : Enhanced AC-3

  37. Commercial name : Dolby Digital Plus

  38. Codec ID : A_EAC3

  39. Duration : 1 h 54 min

  40. Bit rate mode : Constant

  41. Bit rate : 256 kb/s

  42. Channel(s) : 6 channels

  43. Channel layout : L R C LFE Ls Rs

  44. Sampling rate : 48.0 kHz

  45. Frame rate : 31.250 FPS (1536 SPF)

  46. Compression mode : Lossy

  47. Stream size : 210 MiB (5%)

  48. Language : Chinese

  49. Service kind : Complete Main

  50. Default : Yes

  51. Forced : No


  52. Audio #2

  53. ID : 3

  54. Format : AAC LC

  55. Format/Info : Advanced Audio Codec Low Complexity

  56. Codec ID : A_AAC-2

  57. Duration : 1 h 54 min

  58. Bit rate : 192 kb/s

  59. Channel(s) : 2 channels

  60. Channel layout : L R

  61. Sampling rate : 44.1 kHz

  62. Frame rate : 43.066 FPS (1024 SPF)

  63. Compression mode : Lossy

  64. Stream size : 155 MiB (4%)

  65. Language : Chinese

  66. Default : No

  67. Forced : No


  68. Text #1

  69. ID : 4

  70. Format : UTF-8

  71. Codec ID : S_TEXT/UTF8

  72. Codec ID/Info : UTF-8 Plain Text

  73. Duration : 1 h 52 min

  74. Bit rate : 47 b/s

  75. Count of elements : 1945

  76. Stream size : 39.4 KiB (0%)

  77. Title : 简体中文

  78. Language : Chinese

  79. Default : Yes

  80. Forced : No


  81. Text #2

  82. ID : 5

  83. Format : UTF-8

  84. Codec ID : S_TEXT/UTF8

  85. Codec ID/Info : UTF-8 Plain Text

  86. Duration : 1 h 52 min

  87. Bit rate : 47 b/s

  88. Count of elements : 1945

  89. Stream size : 39.4 KiB (0%)

  90. Title : 繁体中文

  91. Language : Chinese

  92. Default : No

  93. Forced : No


  94. Text #3

  95. ID : 6

  96. Format : UTF-8

  97. Codec ID : S_TEXT/UTF8

  98. Codec ID/Info : UTF-8 Plain Text

  99. Duration : 1 h 48 min

  100. Bit rate : 55 b/s

  101. Count of elements : 1796

  102. Stream size : 43.6 KiB (0%)

  103. Title : 英语

  104. Language : English

  105. Default : No

  106. Forced : No


  107. Text #4

  108. ID : 7

  109. Format : UTF-8

  110. Codec ID : S_TEXT/UTF8

  111. Codec ID/Info : UTF-8 Plain Text

  112. Duration : 1 h 53 min

  113. Bit rate : 153 b/s

  114. Count of elements : 1946

  115. Stream size : 127 KiB (0%)

  116. Title : 泰语

  117. Language : Thai

  118. Default : No

  119. Forced : No


  120. Text #5

  121. ID : 8

  122. Format : UTF-8

  123. Codec ID : S_TEXT/UTF8

  124. Codec ID/Info : UTF-8 Plain Text

  125. Duration : 1 h 53 min

  126. Bit rate : 70 b/s

  127. Count of elements : 1946

  128. Stream size : 58.8 KiB (0%)

  129. Title : 马来语

  130. Language : Malay

  131. Default : No

  132. Forced : No


  133. Text #6

  134. ID : 9

  135. Format : UTF-8

  136. Codec ID : S_TEXT/UTF8

  137. Codec ID/Info : UTF-8 Plain Text

  138. Duration : 1 h 53 min

  139. Bit rate : 84 b/s

  140. Count of elements : 1946

  141. Stream size : 70.6 KiB (0%)

  142. Title : 越南语

  143. Language : Vietnamese

  144. Default : No

  145. Forced : No


  146. Text #7

  147. ID : 10

  148. Format : UTF-8

  149. Codec ID : S_TEXT/UTF8

  150. Codec ID/Info : UTF-8 Plain Text

  151. Duration : 1 h 53 min

  152. Bit rate : 66 b/s

  153. Count of elements : 1946

  154. Stream size : 55.4 KiB (0%)

  155. Title : 印尼语

  156. Language : Indonesian

  157. Default : No

  158. Forced : No


文件下载


除非特别注明,本文『你的婚礼[国语音轨/简繁字幕].My.Love.2021.WEB-DL.1080p.H265.DDP.5.1 3.82GB』来源于互联网机器人自动抓取,非本站原创。 浮游电影网不对本文拥有版权,如有侵犯,请联系邮箱:fuyouu#yandex.com[#换成@]投诉。我们会在15个工作日内删除。 但烦请转载时请标明出处:“本文转载于『浮游电影网』,原文地址:https://www.fuyouu.com/13782.html

评论吧骚年!

发表你的见解   

昵称*

E-mail*(建议输入,以便收到博主回复的提示邮件)

验证码*

您可以使用eMule或eMule Mod(Windows)、aMule(Win、Linux、Mac)等软件下载eD2k链接。。
eMule收藏集(.emulecollection)文件是您选中的所有链接的列表文件。eMule可以直接下载它们。
按住SHIFT键选择可以选中多个选择框。
可用文件名和大小选择器来选择文件。
文件名选择器帮您根据文件名称或后缀来选择文件。不分大小写。
符号使用:
和:空格( )、+
不包含:-
或:|
转义:一对英文引号("");
匹配开头:^
匹配结尾:$
例如:
选中所有名称中包含有“eMule”或“0.49c”字眼,但不包含有“exe”字眼的:emule|0.49c -exe
选中所有名称的开头是“eMule”,结尾是“0.49c”的:^emule 0.49c$
选中所有名称中带有“eMule 0.49c”的(必须是“eMule 0.49c”,中间没有别的字符,不能是“eMule fake 0.49c”),需要转义:"emule 0.49c"
大小选择器帮您根据文件大小选择文件。