当前位置: 首页 >> 国产电影 >> 完美受害人[国语中字].The.Perfect.Victim.2021.2160p.WEB-DL.H265.AAC 10.79GB >> 正文

完美受害人[国语中字].The.Perfect.Victim.2021.2160p.WEB-DL.H265.AAC 10.79GB

2021年08月21日 01:44:29     电影发布:来源于网络     电影分类:国产电影     评论(0)    

完美受害人[国语中字].The.Perfect.Victim.2021.2160p.WEB DL.H265.AAC 10.79GB 悬疑片 犯罪片 剧情片 国产电影  第1张

◎译 名 完美受害人 / The Perfect Victim

◎年 代 2021

◎产 地 中国大陆

◎类 别 剧情 / 悬疑 / 犯罪

◎语 言 汉语普通话

◎上映日期 2021-06-25(中国大陆)

◎IMDb链接 https://www.imdb.com/title/tt14766862/

◎豆瓣评分 5.5/10 (3945人评价)

◎豆瓣链接 https://movie.douban.com/subject/34839344/

◎片 长 101分钟

◎导 演 杨泷杰 Longjie Yang (id:1457837)

◎编 剧 付梦然 Mengran Fu (id:1458048)

杨泷杰 Longjie Yang (id:1457837)

◎演 员 李乃文 Naiwen Li (id:1274530)

冯文娟 Wenjuan Feng (id:1325753)

张峻宁 Junning Zhang (id:1002998)

谭凯 Kai Tan (id:1275687)

姬他 Ta Ji (id:1316038)

芦展翔 Zhanxiang Lu (id:1399147)

赵子琪 Ziqi Zhao (id:1275536)

郭阳 Yang Guo (id:1403909)

郭亮 Liang Guo (id:1348746)

刘凡菲 Viola Liu (id:1326738)

张垒 Lei Zhang (id:1276088)

冯国强 Guoqiang Feng (id:1325166)

赵彦乔 Yanqiao Zhao (id:1356459)

张镒麟 Yilin Zhang (id:1402439)

邓军 (id:1457830)

张一凡 Yifan Zhang (id:1324509)

金杨 Yang Jin (id:1330080)

◎标 签 悬疑 / 推理 / 犯罪 / 反家暴 / 剧情 / 女性 / 中国大陆 / 2021

◎简 介

看似毫无联系的两起自杀案件,却将所有的疑点指向了一位著名画家。而正当警方锁定杀人凶手时,却发现嫌疑人画家已经跳楼自杀。危机并没有结束。案件陷入了前所未有的困境,唯一的线索只剩下嫌疑人画家的前妻。死去的画家,隐藏幕后的凶手,陷入困局的警察,一个患有创伤后应激障碍的女人,一桩陈年旧事。一个巨大的秘密和一场骇人的罪恶逐渐露出水面。

所以真相到底是什么?你看见的就一定是真相吗?

  1. ##### MediaInfo ######

  2. General

  3. Complete name : 完美受害人.The.Perfect.Victim.2021.2160p.WEB-DL.H265.AAC-10003@BBQDDQ.COM.mp4

  4. Format : MPEG-4

  5. Format profile : Base Media

  6. Codec ID : isom (isom/iso2/mp41)

  7. File size : 10.8 GiB

  8. Duration : 1 h 41 min

  9. Overall bit rate mode : Variable

  10. Overall bit rate : 15.2 Mb/s

  11. Writing application : Lavf58.32.104

  12. Video

  13. ID : 1

  14. Format : HEVC

  15. Format/Info : High Efficiency Video Coding

  16. Format profile : Main@L5@Main

  17. Codec ID : hev1

  18. Codec ID/Info : High Efficiency Video Coding

  19. Duration : 1 h 41 min

  20. Bit rate : 15.1 Mb/s

  21. Width : 4 096 pixels

  22. Height : 1 724 pixels

  23. Display aspect ratio : 2.40:1

  24. Frame rate mode : Constant

  25. Frame rate : 25.000 FPS

  26. Standard : Component

  27. Color space : YUV

  28. Chroma subsampling : 4:2:0

  29. Bit depth : 8 bits

  30. Bits/(Pixel*Frame) : 0.085

  31. Stream size : 10.7 GiB (99%)

  32. Writing library : x265 2.8:[Linux][GCC 4.8.5][64 bit] 8bit+10bit+12bit

  33. Encoding settings : cpuid=533541111039 / frame-threads=5 / wpp / no-pmode / no-pme / no-psnr / no-ssim / log-level=2 / input-csp=1 / input-res=4096x1724 / interlace=0 / total-frames=0 / level-idc=0 / high-tier=1 / uhd-bd=0 / ref=3 / no-allow-non-conformance / repeat-headers / annexb / no-aud / no-hrd / info / hash=0 / no-temporal-layers / open-gop / min-keyint=1 / keyint=5 / gop-lookahead=0 / bframes=2 / b-adapt=2 / no-b-pyramid / bframe-bias=0 / rc-lookahead=20 / lookahead-slices=8 / scenecut=0 / radl=0 / no-intra-refresh / ctu=64 / min-cu-size=8 / no-rect / no-amp / max-tu-size=32 / tu-inter-depth=1 / tu-intra-depth=1 / limit-tu=0 / rdoq-level=0 / dynamic-rd=0.00 / no-ssim-rd / signhide / no-tskip / nr-intra=0 / nr-inter=0 / no-constrained-intra / strong-intra-smoothing / max-merge=2 / limit-refs=3 / no-limit-modes / me=1 / subme=2 / merange=57 / temporal-mvp / weightp / no-weightb / no-analyze-src-pics / deblock=0:0 / sao / no-sao-non-deblock / rd=3 / no-early-skip / rskip / no-fast-intra / no-tskip-fast / no-cu-lossless / no-b-intra / no-splitrd-skip / rdpenalty=0 / psy-rd=0.00 / psy-rdoq=0.00 / no-rd-refine / no-lossless / cbqpoffs=0 / crqpoffs=0 / rc=cbr / bitrate=15000 / qcomp=0.60 / qpstep=4 / stats-write=0 / stats-read=0 / vbv-maxrate=15000 / vbv-bufsize=15000 / vbv-init=0.9 / ipratio=1.40 / pbratio=1.00 / aq-mode=1 / aq-strength=0.00 / cutree / zone-count=0 / strict-cbr / qg-size=32 / no-rc-grain / qpmax=69 / qpmin=0 / no-const-vbv / sar=255 / sar-width / : / sar-height=6465:6464 / overscan=0 / videoformat=0 / range=0 / colorprim=2 / transfer=2 / colormatrix=2 / chromaloc=0 / display-window=0 / max-cll=0,0 / min-luma=0 / max-luma=255 / log2-max-poc-lsb=8 / vui-timing-info / vui-hrd-info / slices=1 / no-opt-qp-pps / no-opt-ref-list-length-pps / no-multi-pass-opt-rps / scenecut-bias=0.05 / no-opt-cu-delta-qp / no-aq-motion / no-hdr / no-hdr-opt / no-dhdr10-opt / no-idr-recovery-sei / analysis-reuse-level=5 / scale-factor=0 / refine-intra=0 / refine-inter=0 / refine-mv=0 / no-limit-sao / ctu-info=0 / no-lowpass-dct / refine-mv-type=0 / copy-pic=1 / max-ausize-factor=1.0 / no-dynamic-refine / no-single-sei

  34. Color range : Limited

  35. Codec configuration box : hvcC

  36. Audio

  37. ID : 2

  38. Format : AAC LC

  39. Format/Info : Advanced Audio Codec Low Complexity

  40. Codec ID : mp4a-40-2

  41. Duration : 1 h 41 min

  42. Bit rate mode : Variable

  43. Bit rate : 125 kb/s

  44. Maximum bit rate : 129 kb/s

  45. Channel(s) : 2 channels

  46. Channel layout : L R

  47. Sampling rate : 48.0 kHz

  48. Frame rate : 46.875 FPS (1024 SPF)

  49. Compression mode : Lossy

  50. Stream size : 91.0 MiB (1%)

  51. Default : Yes

  52. Alternate group : 1


文件下载


除非特别注明,本文『完美受害人[国语中字].The.Perfect.Victim.2021.2160p.WEB-DL.H265.AAC 10.79GB』来源于互联网机器人自动抓取,非本站原创。 浮游电影网不对本文拥有版权,如有侵犯,请联系邮箱:fuyouu#yandex.com[#换成@]投诉。我们会在15个工作日内删除。 但烦请转载时请标明出处:“本文转载于『浮游电影网』,原文地址:https://www.fuyouu.com/13780.html

评论吧骚年!

发表你的见解   

昵称*

E-mail*(建议输入,以便收到博主回复的提示邮件)

验证码*

您可以使用eMule或eMule Mod(Windows)、aMule(Win、Linux、Mac)等软件下载eD2k链接。。
eMule收藏集(.emulecollection)文件是您选中的所有链接的列表文件。eMule可以直接下载它们。
按住SHIFT键选择可以选中多个选择框。
可用文件名和大小选择器来选择文件。
文件名选择器帮您根据文件名称或后缀来选择文件。不分大小写。
符号使用:
和:空格( )、+
不包含:-
或:|
转义:一对英文引号("");
匹配开头:^
匹配结尾:$
例如:
选中所有名称中包含有“eMule”或“0.49c”字眼,但不包含有“exe”字眼的:emule|0.49c -exe
选中所有名称的开头是“eMule”,结尾是“0.49c”的:^emule 0.49c$
选中所有名称中带有“eMule 0.49c”的(必须是“eMule 0.49c”,中间没有别的字符,不能是“eMule fake 0.49c”),需要转义:"emule 0.49c"
大小选择器帮您根据文件大小选择文件。