当前位置: 首页 >> 动画电影 >> 仙履奇缘[中文字幕].Cinderella.1950.1080p.BluRay.DTS.x265-10bit 3.80GB >> 正文

仙履奇缘[中文字幕].Cinderella.1950.1080p.BluRay.DTS.x265-10bit 3.80GB

2021年08月21日 01:37:09     电影发布:来源于网络     电影分类:动画电影     评论(0)    

仙履奇缘[中文字幕].Cinderella.1950.1080p.BluRay.DTS.x265 10bit 3.80GB 歌舞 动画片 奇幻片 爱情片 动画电影  第1张

◎译 名 仙履奇缘 / 灰姑娘 / 辛德瑞拉

◎片 名 Cinderella

◎年 代 1950

◎产 地 美国

◎类 别 爱情 / 动画 / 歌舞 / 奇幻

◎语 言 英语

◎上映日期 1950-03-04

◎IMDb链接 https://www.imdb.com/title/tt0042332/

◎豆瓣评分 8.4/10 (57259人评价)

◎豆瓣链接 https://movie.douban.com/subject/1294461/

◎片 长 74 分钟

◎导 演 克莱德·杰洛尼米 Clyde Geronimi (id:1018550)

威尔弗雷德·杰克逊 Wilfred Jackson (id:1005519)

汉密尔顿·卢斯科 Hamilton Luske (id:1028503)

◎编 剧 比尔·皮特 Bill Peet (id:1005598)

厄尔德曼·彭纳 Erdman Penner (id:1015019)

特德·西尔斯 Ted Sears (id:1033217)

夏尔·佩罗 Charles Perrault (id:1016837)

◎演 员 艾琳·伍兹 Ilene Woods (id:1161787)

艾莉诺·阿德里 Eleanor Audley (id:1060942)

薇娜·费尔顿 Verna Felton (id:1088151)

◎标 签 动画 / 迪斯尼 / 美国 / 灰姑娘 / DISNEY / 爱情 / 经典 / 动画片

◎简 介

一部经典的迪士尼动画片,取材于格林童话《灰姑娘》。母亲的早逝令灰姑娘仙德瑞拉再也感受不到母爱的温暖,失去了公主般的童年。后母和她的两个女儿,无时无刻不在想方设法折磨仙德瑞拉,给她糟糕的住处、做不完的家务。幸好得道多助、失道寡助,心地善良的仙德瑞拉结识了一大班朋友,老鼠 、鸟儿、小狗都是守护在她周围的老友记。

王子要在全城寻找王妃,仙德瑞拉用破旧零碎的布料赶做了一件礼服,当然这远远比不上心花怒放的姐姐们穿得艳丽。然而,灰姑娘得到了魔法相助,在神奇的法术中她美得倾城,坐着南瓜车来到王子的宫殿,与王子翩翩起舞。她知道,法术会在12点之前统统消失,大钟敲响的那一刻,她慌忙逃离王子,情陷已深的王子拿着灰姑娘不小心遗下的玻璃鞋,誓要从百万女子中找到一生中的最爱:仙德瑞拉。

◎获奖情况 (共6项)

第23届奥斯卡金像奖 (1951)

最佳录音(提名)

└──C·O·斯莱菲尔德 (id:1297801)

歌舞片最佳配乐(提名)

最佳原创歌曲(提名)

第11届威尼斯电影节 (1950)

主竞赛单元 金狮奖 (提名)

第10届柏林国际电影节 (1960)

金熊奖 最佳影片(提名)

第1届柏林国际电影节 (1951)

音乐片类 金熊奖

  1. ##### MediaInfo ######

  2. General

  3. Unique ID : 97277508200593703773899330239778890193 (0x492EF772D40745D816AAB4AD911DA1D1)

  4. Complete name : Cinderella.1950.1080p.BluRay.DTS.x265-10bit-10007@BBQDDQ.COM.mkv

  5. Format : Matroska

  6. Format version : Version 4

  7. File size : 3.80 GiB

  8. Duration : 1 h 14 min

  9. Overall bit rate : 7 311 kb/s

  10. Movie name : Cinderella 1950 1080p BluRay DTS x265-10bit-10007@BBQDDQ.COM

  11. Encoded date : UTC 2021-08-20 08:33:23

  12. Writing application : mkvmerge v38.0.0 ('The Silent Type') 64-bit

  13. Writing library : libebml v1.3.9 + libmatroska v1.5.2


  14. Video

  15. ID : 1

  16. Format : HEVC

  17. Format/Info : High Efficiency Video Coding

  18. Format profile : Main 10@L5.1@High

  19. Codec ID : V_MPEGH/ISO/HEVC

  20. Duration : 1 h 14 min

  21. Bit rate : 5 780 kb/s

  22. Width : 1 452 pixels

  23. Height : 1 080 pixels

  24. Display aspect ratio : 4:3

  25. Frame rate mode : Constant

  26. Frame rate : 23.976 (24000/1001/53354) FPS

  27. Color space : YUV

  28. Chroma subsampling : 4:2:0

  29. Bit depth : 10 bits

  30. Bits/(Pixel*Frame) : 0.154

  31. Stream size : 3.01 GiB (79%)

  32. Title : @HDSky

  33. Writing library : x265 - H.265/HEVC codec

  34. Encoding settings : lslices=4 / deblock(tC=-1:B=-1)

  35. Default : Yes

  36. Forced : No


  37. Audio

  38. ID : 2

  39. Format : DTS

  40. Format/Info : Digital Theater Systems

  41. Codec ID : A_DTS

  42. Duration : 1 h 14 min

  43. Bit rate mode : Constant

  44. Bit rate : 1 509 kb/s

  45. Channel(s) : 6 channels

  46. Channel layout : C L R Ls Rs LFE

  47. Sampling rate : 48.0 kHz

  48. Frame rate : 93.750 FPS (512 SPF)

  49. Bit depth : 24 bits

  50. Compression mode : Lossy

  51. Stream size : 804 MiB (21%)

  52. Title : English

  53. Language : English

  54. Default : Yes

  55. Forced : No


  56. Text #1

  57. ID : 3

  58. Format : PGS

  59. Muxing mode : zlib

  60. Codec ID : S_HDMV/PGS

  61. Codec ID/Info : Picture based subtitle format used on BDs/HD-DVDs

  62. Duration : 1 h 14 min

  63. Bit rate : 20.4 kb/s

  64. Count of elements : 1683

  65. Stream size : 10.8 MiB (0%)

  66. Title : CHS

  67. Language : Chinese

  68. Default : Yes

  69. Forced : No


  70. Text #2

  71. ID : 4

  72. Format : PGS

  73. Muxing mode : zlib

  74. Codec ID : S_HDMV/PGS

  75. Codec ID/Info : Picture based subtitle format used on BDs/HD-DVDs

  76. Duration : 1 h 14 min

  77. Bit rate : 21.0 kb/s

  78. Count of elements : 1683

  79. Stream size : 11.1 MiB (0%)

  80. Title : CHT

  81. Language : Chinese

  82. Default : No

  83. Forced : No


  84. Menu

  85. 00:00:00.000 : en:Chapter 01

  86. 00:01:23.166 : en:Chapter 02

  87. 00:04:20.719 : en:Chapter 03

  88. 00:07:37.415 : en:Chapter 04

  89. 00:10:15.240 : en:Chapter 05

  90. 00:13:29.142 : en:Chapter 06

  91. 00:17:39.308 : en:Chapter 07

  92. 00:22:07.826 : en:Chapter 08

  93. 00:23:32.953 : en:Chapter 09

  94. 00:26:05.731 : en:Chapter 10

  95. 00:27:55.173 : en:Chapter 11

  96. 00:31:00.150 : en:Chapter 12

  97. 00:33:32.510 : en:Chapter 13

  98. 00:36:49.040 : en:Chapter 14

  99. 00:38:55.708 : en:Chapter 15

  100. 00:42:02.103 : en:Chapter 16

  101. 00:44:11.983 : en:Chapter 17

  102. 00:48:23.109 : en:Chapter 18

  103. 00:52:54.171 : en:Chapter 19

  104. 00:56:57.122 : en:Chapter 20

  105. 01:00:42.472 : en:Chapter 21

  106. 01:04:11.097 : en:Chapter 22

  107. 01:07:34.801 : en:Chapter 23

  108. 01:13:05.715 : en:Chapter 24



文件下载


除非特别注明,本文『仙履奇缘[中文字幕].Cinderella.1950.1080p.BluRay.DTS.x265-10bit 3.80GB』来源于互联网机器人自动抓取,非本站原创。 浮游电影网不对本文拥有版权,如有侵犯,请联系邮箱:fuyouu#yandex.com[#换成@]投诉。我们会在15个工作日内删除。 但烦请转载时请标明出处:“本文转载于『浮游电影网』,原文地址:https://www.fuyouu.com/13776.html

评论吧骚年!

发表你的见解   

昵称*

E-mail*(建议输入,以便收到博主回复的提示邮件)

验证码*

您可以使用eMule或eMule Mod(Windows)、aMule(Win、Linux、Mac)等软件下载eD2k链接。。
eMule收藏集(.emulecollection)文件是您选中的所有链接的列表文件。eMule可以直接下载它们。
按住SHIFT键选择可以选中多个选择框。
可用文件名和大小选择器来选择文件。
文件名选择器帮您根据文件名称或后缀来选择文件。不分大小写。
符号使用:
和:空格( )、+
不包含:-
或:|
转义:一对英文引号("");
匹配开头:^
匹配结尾:$
例如:
选中所有名称中包含有“eMule”或“0.49c”字眼,但不包含有“exe”字眼的:emule|0.49c -exe
选中所有名称的开头是“eMule”,结尾是“0.49c”的:^emule 0.49c$
选中所有名称中带有“eMule 0.49c”的(必须是“eMule 0.49c”,中间没有别的字符,不能是“eMule fake 0.49c”),需要转义:"emule 0.49c"
大小选择器帮您根据文件大小选择文件。