当前位置: 首页 >> 国产电影 >> 受益人[国语中字].My.Dear.Liar.2019.2160p.WEB-DL.H265.DDP5.1 12.07GB >> 正文

受益人[国语中字].My.Dear.Liar.2019.2160p.WEB-DL.H265.DDP5.1 12.07GB

2021年08月21日 00:26:52     电影发布:来源于网络     电影分类:国产电影     评论(0)    

受益人[国语中字].My.Dear.Liar.2019.2160p.WEB DL.H265.DDP5.1 12.07GB 爱情片 喜剧片 剧情片 国产电影  第1张

◎译 名 受益人 / My Dear Liar

◎年 代 2019

◎产 地 中国大陆

◎类 别 剧情 / 喜剧 / 爱情

◎语 言 汉语普通话

◎上映日期 2019-11-08(中国大陆)

◎IMDb链接 https://www.imdb.com/title/tt11091530/

◎豆瓣评分 6.6/10 (182426人评价)

◎豆瓣链接 https://movie.douban.com/subject/30299311/

◎片 长 112分钟

◎导 演 申奥 Ao Shen (id:1404918)

◎编 剧 申奥 Ao Shen (id:1404918)

许渌洋 Luyang Xu (id:1424495)

王燕秋 Yanqiu Wang (id:1424496)

◎演 员 大鹏 Chengpeng Dong (id:1324043)

柳岩 Yan Liu (id:1312846)

张子贤 Zixian Zhang (id:1374201)

张邵勃 Shaobo Zhang (id:1410678)

刘刚 Gang Liu (id:1419025)

龙洁 Jie Long (id:1384015)

陈卫 Wei Chen (id:1336673)

彭波 Bo Peng (id:1317859)

苏娜 Na Su (id:1422171)

唐茜 Qian Tang (id:1396593)

邓飞 Fei Deng (id:1365659)

陈正华 Zhenghua Chen (id:1350799)

徐玉琨 Yukun Xu (id:1384113)

丁文博 Wenbo Ding (id:1351384)

李宜儒 Yiru Li (id:1401137)

曹宇宙 Yuzhou Cao (id:1434024)

马昕墨 Leslie Ma (id:1336345)

李季 Ji Li (id:1417349)

潘高琼 Gaoqiong Pan (id:1434055)

杨常金 Changjin Yang (id:1434056)

王议伟 Yiwei Wang (id:1443826)

张傲然 Aoran Zhang (id:1450745)

宁浩 Hao Ning (id:1274265)

王易冰 Yibing Wang (id:1381922)

魏小蕾 Xiaolei Wei (id:1423228)

大鹏 Chengpeng Dong (id:1324043)

程武 Wu Cheng (id:1406349)

李捷 Jie Li (id:1403835)

郑志昊 Zhihao Zheng (id:1397531)

曾茂军 Maojun Zeng (id:1397615)

王凤长 Fengchang Wang (id:1381889)

宋歌 Ge Song (id:1318488)

徐天福 Tianfu Xu (id:1414879)

刘荣 Rong Liu (id:1399271)

蔡元 Yuan Cai (id:1415382)

徐若阳 Ruoyang Xu (id:1424717)

刘春玲 Chunling Liu (id:1424718)

张文伯 Wenbo Zhang (id:1424719)

邹沙沙 Aiken Zou Shasha (id:1392574)

王文卿 Wenqing Wang (id:1424720)

刘明轶 Mingyi Liu (id:1341091)

王晔 Ye Wang (id:1434057)

邹沙沙 Aiken Zou (id:1434058)

彭飞 Fei Peng (id:1404313)

赵英俊 Yingjun Zhao (id:1315474)

钟锐 Rui Zhong (id:1424497)

周肖林 Xiaolin Zhou (id:1365738)

杜光宇 Guangyu Du (id:1423451)

杜光宇 Guangyu Du (id:1423451)

刘建奇 Jianqi Liu (id:1441889)

王议伟 Yiwei Wang (id:1443826)

王丹宁 Danning Wang (id:1424498)

◎标 签 黑色幽默 / 人性 / 喜剧 / 中国大陆 / 爱情 / 剧情 / 犯罪 / 2019

◎简 介

吴海(大鹏 饰)为了给罹患哮喘的6岁儿子治病,在好友钟振江(张子贤 饰)的怂恿下,刻意结识了一个与他同样身处边缘和底层的网络女主播淼淼(柳岩 饰),决心酝酿一场别有用心的婚姻骗局……

◎获奖情况 (共7项)

第33届中国电影金鸡奖 (2020)

最佳男主角(提名)

└──大鹏 (id:1324043)

最佳女主角(提名)

└──柳岩 (id:1312846)

最佳导演处女作

└──申奥 (id:1404918)

最佳美术(提名)

└──杜光宇 (id:1423451)

最佳剪辑(提名)

└──周肖林 (id:1365738)

第15届中国长春电影节 (2020)

金鹿奖 最佳青年导演处女作奖

└──申奥 (id:1404918)

第11届澳门国际电影节 (2019)

金莲花奖 最佳女主角

└──柳岩 (id:1312846)

  1. ##### MediaInfo ######

  2. General

  3. Complete name : 受益人.My.Dear.Liar.2019.2160p.WEB-DL.H265.DDP5.1-10006@BBQDDQ.COM.mp4

  4. Format : MPEG-4

  5. Format profile : Base Media

  6. Codec ID : isom (isom/iso2/mp41)

  7. File size : 12.1 GiB

  8. Duration : 1 h 52 min

  9. Overall bit rate mode : Variable

  10. Overall bit rate : 15.3 Mb/s

  11. Writing application : OurTV Multimedia Platform


  12. Video

  13. ID : 1

  14. Format : HEVC

  15. Format/Info : High Efficiency Video Coding

  16. Format profile : Main@L5@Main

  17. Codec ID : hev1

  18. Codec ID/Info : High Efficiency Video Coding

  19. Duration : 1 h 52 min

  20. Bit rate : 14.9 Mb/s

  21. Width : 3 840 pixels

  22. Height : 1 616 pixels

  23. Display aspect ratio : 2.40:1

  24. Frame rate mode : Constant

  25. Frame rate : 24.000 FPS

  26. Color space : YUV

  27. Chroma subsampling : 4:2:0

  28. Bit depth : 8 bits

  29. Bits/(Pixel*Frame) : 0.100

  30. Stream size : 11.7 GiB (97%)

  31. Codec configuration box : hvcC


  32. Audio #1

  33. ID : 2

  34. Format : E-AC-3

  35. Format/Info : Enhanced AC-3

  36. Commercial name : Dolby Digital Plus

  37. Codec ID : ec-3

  38. Duration : 1 h 52 min

  39. Bit rate mode : Constant

  40. Bit rate : 256 kb/s

  41. Channel(s) : 6 channels

  42. Channel layout : L R C LFE Ls Rs

  43. Sampling rate : 48.0 kHz

  44. Frame rate : 31.250 FPS (1536 SPF)

  45. Compression mode : Lossy

  46. Stream size : 206 MiB (2%)

  47. Title : 国语DDP5.0

  48. Language : Chinese

  49. Service kind : Complete Main

  50. Default : Yes

  51. Alternate group : 1


  52. Audio #2

  53. ID : 3

  54. Format : AAC LC

  55. Format/Info : Advanced Audio Codec Low Complexity

  56. Codec ID : mp4a-40-2

  57. Duration : 1 h 52 min

  58. Bit rate mode : Variable

  59. Bit rate : 192 kb/s

  60. Channel(s) : 2 channels

  61. Channel layout : L R

  62. Sampling rate : 44.1 kHz

  63. Frame rate : 43.066 FPS (1024 SPF)

  64. Compression mode : Lossy

  65. Stream size : 153 MiB (1%)

  66. Title : 国语AAC2.0

  67. Language : Chinese

  68. Default : No

  69. Alternate group : 1



文件下载


除非特别注明,本文『受益人[国语中字].My.Dear.Liar.2019.2160p.WEB-DL.H265.DDP5.1 12.07GB』来源于互联网机器人自动抓取,非本站原创。 浮游电影网不对本文拥有版权,如有侵犯,请联系邮箱:fuyouu#yandex.com[#换成@]投诉。我们会在15个工作日内删除。 但烦请转载时请标明出处:“本文转载于『浮游电影网』,原文地址:https://www.fuyouu.com/13768.html

评论吧骚年!

发表你的见解   

昵称*

E-mail*(建议输入,以便收到博主回复的提示邮件)

验证码*

您可以使用eMule或eMule Mod(Windows)、aMule(Win、Linux、Mac)等软件下载eD2k链接。。
eMule收藏集(.emulecollection)文件是您选中的所有链接的列表文件。eMule可以直接下载它们。
按住SHIFT键选择可以选中多个选择框。
可用文件名和大小选择器来选择文件。
文件名选择器帮您根据文件名称或后缀来选择文件。不分大小写。
符号使用:
和:空格( )、+
不包含:-
或:|
转义:一对英文引号("");
匹配开头:^
匹配结尾:$
例如:
选中所有名称中包含有“eMule”或“0.49c”字眼,但不包含有“exe”字眼的:emule|0.49c -exe
选中所有名称的开头是“eMule”,结尾是“0.49c”的:^emule 0.49c$
选中所有名称中带有“eMule 0.49c”的(必须是“eMule 0.49c”,中间没有别的字符,不能是“eMule fake 0.49c”),需要转义:"emule 0.49c"
大小选择器帮您根据文件大小选择文件。