当前位置: 首页 >> 国产电影 >> 三人行[国语配音/粤语配音/中文字幕].Three.2016.1080p.BluRay.x265.10bit.DTS.2Audio 6.23GB >> 正文

三人行[国语配音/粤语配音/中文字幕].Three.2016.1080p.BluRay.x265.10bit.DTS.2Audio 6.23GB

2021年08月19日 23:14:37     电影发布:来源于网络     电影分类:国产电影     评论(0)    

三人行[国语配音/粤语配音/中文字幕].Three.2016.1080p.BluRay.x265.10bit.DTS.2Audio 6.23GB 犯罪片 动作片 剧情片 国产电影  第1张

◎译 名 三人行 / Three

◎年 代 2016

◎产 地 中国大陆 / 中国香港

◎类 别 剧情 / 动作 / 犯罪

◎语 言 汉语普通话 / 粤语 / 英语

◎上映日期 2016-06-24(中国大陆) / 2016-06-30(中国香港)

◎IMDb链接 https://www.imdb.com/title/tt4379728/

◎豆瓣评分 5.9/10 (91635人评价)

◎豆瓣链接 https://movie.douban.com/subject/26235349/

◎片 长 90分钟

◎导 演 杜琪峰 Johnnie To (id:1160186)

◎编 剧 游乃海 Nai-Hoi Yau (id:1161310)

刘浩良 Ho Leung Lau (id:1317346)

麦天枢 Tin Shu Mak (id:1343080)

◎演 员 赵薇 Wei Zhao (id:1163713)

古天乐 Louis Koo (id:1027577)

钟汉良 Wallace Chung (id:1274318)

卢海鹏 Hoi-Pang Lo (id:1038772)

林雪 Suet Lam (id:1274279)

张兆辉 Siu-Fai Cheung (id:1005843)

谢天华 Michael Tse (id:1010833)

洪天明 Timmy Hung Tin-Ming (id:1314773)

黄浩然 Raymond Wong Ho-Yin (id:1051740)

龚慈恩 Mimi Kung (id:1313657)

王梓轩 Jonathan Wong Chee-hynn (id:1337843)

欧锦棠 Stephen Au (id:1275712)

何果轩 Guoxuan He (id:1330794)

詹秉熙 Bing Hei Chim (id:1315174)

菁玮 Luvin Ho (id:1320854)

朱健钧 Mickey Chu Kin-Kwan (id:1321676)

杨尚斌 Benjamin Yeung (id:1350959)

安小龙 Xiaolong An (id:1362090)

麦子乐 Bryant Ji-Lok Mak (id:1351652)

施祖男 Vincent Sze (id:1041979)

黄芷晴 Adrian Wong (id:1392889)

陈佩思 Pancy Chan (id:1388745)

莫小彤 Rika Mok (id:1381633)

张国强 Kwok Keung Cheung (id:1274568)

周祉君 Aaron Chow (id:1365642)

陈郁宪 Donovan Chan (id:1417027)

吴嘉星 Kathy Wu (id:1357327)

谭玉瑛 TAM YUK YING (id:1352971)

马赛 Sire Ma (id:1316305)

赵永洪 Raymond Chiu (id:1315541)

游乃海 Nai-Hoi Yau (id:1161310)

杜琪峰 Johnnie To (id:1160186)

林建岳 Peter Lam (id:1340495)

何丽嫦 Lorraine Ho (id:1418364)

龚宇 Yu Gong (id:1406734)

陶鸿武 Hung Mo To (id:1368142)

郑兆强 Siu-keung Cheng (id:1280597)

张兆康 Ahong Cheung (id:1366935)

张兆康 Ahong Cheung (id:1366935)

陈子晴 Dos Santos Chi-Ching Chan (id:1446040)

◎标 签 香港 / 犯罪 / 2016 / 银河映像 / 警匪 / 动作 / 悬疑 / 剧情

◎简 介

香港某大型医院,外科主任医师佟倩(赵薇 饰)刚刚完成例行巡视。接二连三的手术让她的神经高度紧张,加上有的患者术后情况并不理想,无形间使她的精神承受了巨大的压力。就在此时,一名遭受枪伤的男子被紧急送到医院。对方名叫张礼信(钟汉良 饰),是一个胆大包天且狡诈非常的高智商罪犯。虽然头部中枪,但幸运的是并未给他造成巨大的创伤。从昏迷中醒来的张拒绝手术,仿佛正耐心等待时机。监视并开枪射伤他的警官陈伟乐(古天乐 饰)高度紧张,他急于知道对方同伙的下落,为此不惜采用非法手段。

医患如织的医院内,短短六个小时里,警察、医生和悍匪三方展开了艰苦卓绝的角力……

◎获奖情况 (共6项)

第53届台北金马影展 (2016)

金马奖 最佳导演(提名)

└──杜琪峰 (id:1160186)

金马奖 最佳原创配乐(提名)

└──泽维尔·让诺 (id:1021607)

第36届香港电影金像奖 (2017)

最佳导演(提名)

└──杜琪峰 (id:1160186)

最佳摄影(提名)

第19届上海国际电影节 (2016)

电影频道传媒大奖 最受传媒关注男主角

└──钟汉良 (id:1274318)

第11届亚洲电影大奖 (2017)

最佳原创音乐(提名)

└──泽维尔·让诺 (id:1021607)

  1. ##### MediaInfo ######

  2. General

  3. Unique ID : 204897087379815114332526954188531268454 (0x9A25BE5D3DCEB3D9CB184D39E43F7B66)

  4. Complete name : Three.2016.1080p.BluRay.x265.10bit.DTS.2Audio-10017@BBQDDQ.COM.mkv

  5. Format : Matroska

  6. Format version : Version 4

  7. File size : 6.23 GiB

  8. Duration : 1 h 28 min

  9. Overall bit rate : 10.1 Mb/s

  10. Movie name : Three - Blu-ray?

  11. Encoded date : UTC 2021-08-18 04:06:52

  12. Writing application : mkvmerge v59.0.0 ('Shining Star') 64-bit

  13. Writing library : libebml v1.4.2 + libmatroska v1.6.4

  14. Cover : Yes

  15. Attachments : cover.jpg


  16. Video

  17. ID : 1

  18. Format : HEVC

  19. Format/Info : High Efficiency Video Coding

  20. Format profile : Main 10@L4@Main

  21. Codec ID : V_MPEGH/ISO/HEVC

  22. Duration : 1 h 28 min

  23. Bit rate : 7 080 kb/s

  24. Width : 1 920 pixels

  25. Height : 816 pixels

  26. Display aspect ratio : 2.35:1

  27. Frame rate mode : Constant

  28. Frame rate : 24.000 FPS

  29. Color space : YUV

  30. Chroma subsampling : 4:2:0

  31. Bit depth : 10 bits

  32. Bits/(Pixel*Frame) : 0.188

  33. Stream size : 4.35 GiB (70%)

  34. Writing library : x265 3.5+2-g2b25c9ba0+45:[Windows][GCC 10.2.0][64 bit] Yuuki 10bit+8bit+12bit

  35. Encoding settings : rc=crf / crf=16.5000 / qcomp=0.60 / qpstep=4 / stats-write=0 / stats-read=0 / no-lossless / no-cu-lossless / aq-mode=3 / aq-strength=0.90 / cbqpoffs=0 / crqpoffs=0 / ipratio=1.40 / pbratio=1.30 / psy-rd=2.00 / psy-rdoq=0.00 / deblock=0:0 / ref=6 / limit-refs=1 / no-limit-modes / bframes=8 / b-adapt=2 / bframe-bias=0 / b-pyramid / b-intra / weightp / weightb / min-keyint=24 / max-keyint=240 / rc-lookahead=24 / gop-lookahead=0 / NTMzNTQ=uuDQuD2mJt9fsCf / scenecut=40 / hist-scenecut=0 / radl=0 / max-cu-size=64 / min-cu-size=8 / me=3 / subme=7 / merange=48 / rdoq-level=0 / rd=4 / rdpenalty=0 / dynamic-rd=0.00 / no-rd-refine / ----- / cutree / sao / no-rect / no-amp / no-open-gop / wpp / no-pmode / no-pme / no-psnr / no-ssim / nr-intra=0 / nr-inter=0 / no-constrained-intra / no-strong-intra-smoothing / max-tu-size=32 / tu-inter-depth=1 / tu-intra-depth=1 / limit-tu=0 / qg-size=32 / qpmax=69 / qpmin=0 / ----- / cpuid=533541111039 / frame-threads=4 / numa-pools=+ / log-level=2 / input-csp=1 / input-res=1920x816 / interlace=0 / level-idc=0 / high-tier=1 / uhd-bd=0 / no-allow-non-conformance / no-repeat-headers / aud / no-hrd / info / hash=0 / no-temporal-layers / lookahead-slices=0 / no-splice / no-intra-refresh / no-ssim-rd / signhide / no-tskip / max-merge=3 / temporal-mvp / no-frame-dup / no-hme / no-analyze-src-pics / no-sao-non-deblock / selective-sao=4 / early-skip / rskip / no-fast-intra / no-tskip-fast / no-splitrd-skip / zone-count=0 / no-strict-cbr / no-rc-grain / no-const-vbv / sar=0 / overscan=0 / videoformat=5 / range=0 / colorprim=2 / transfer=2 / colormatrix=2 / chromaloc=0 / display-window=0 / cll=0,0 / min-luma=0 / max-luma=1023 / log2-max-poc-lsb=8 / vui-timing-info / vui-hrd-info / slices=1 / no-opt-qp-pps / no-opt-ref-list-length-pps / no-multi-pass-opt-rps / scenecut-bias=0.05 / hist-threshold=0.03 / no-opt-cu-delta-qp / no-aq-motion / no-hdr10 / no-hdr10-opt / no-dhdr10-opt / no-idr-recovery-sei / analysis-reuse-level=0 / analysis-save-reuse-level=0 / analysis-load-reuse-level=0 / scale-factor=0 / refine-intra=0 / refine-inter=0 / refine-mv=1 / refine-ctu-distortion=0 / no-limit-sao / ctu-info=0 / no-lowpass-dct / refine-analysis-type=0 / copy-pic=1 / max-ausize-factor=1.0 / no-dynamic-refine / no-single-sei / no-hevc-aq / no-svt / no-field / qp-adaptation-range=1.00 / scenecut-aware-qp=0conformance-window-offsets / right=0 / bottom=0 / NTMzNTQ= / decoder-max-rate=0 / no-vbv-live-multi-pass

  36. Language : Chinese

  37. Default : Yes

  38. Forced : No


  39. Audio #1

  40. ID : 2

  41. Format : DTS

  42. Format/Info : Digital Theater Systems

  43. Codec ID : A_DTS

  44. Duration : 1 h 28 min

  45. Bit rate mode : Constant

  46. Bit rate : 1 510 kb/s

  47. Channel(s) : 6 channels

  48. Channel layout : C L R Ls Rs LFE

  49. Sampling rate : 48.0 kHz

  50. Frame rate : 93.750 FPS (512 SPF)

  51. Bit depth : 24 bits

  52. Compression mode : Lossy

  53. Stream size : 951 MiB (15%)

  54. Title : Cantonese

  55. Language : Chinese

  56. Default : Yes

  57. Forced : No


  58. Audio #2

  59. ID : 3

  60. Format : DTS

  61. Format/Info : Digital Theater Systems

  62. Codec ID : A_DTS

  63. Duration : 1 h 28 min

  64. Bit rate mode : Constant

  65. Bit rate : 1 510 kb/s

  66. Channel(s) : 6 channels

  67. Channel layout : C L R Ls Rs LFE

  68. Sampling rate : 48.0 kHz

  69. Frame rate : 93.750 FPS (512 SPF)

  70. Bit depth : 24 bits

  71. Compression mode : Lossy

  72. Stream size : 951 MiB (15%)

  73. Title : Mandarin

  74. Language : Chinese

  75. Default : No

  76. Forced : No


  77. Text #1

  78. ID : 4

  79. ID in the original source medium : 4609 (0x1201)

  80. Format : PGS

  81. Muxing mode : zlib

  82. Codec ID : S_HDMV/PGS

  83. Codec ID/Info : Picture based subtitle format used on BDs/HD-DVDs

  84. Duration : 1 h 21 min

  85. Bit rate : 23.4 kb/s

  86. Count of elements : 1926

  87. Stream size : 13.6 MiB (0%)

  88. Title : chs

  89. Language : Chinese

  90. Default : Yes

  91. Forced : No

  92. Original source medium : Blu-ray


  93. Text #2

  94. ID : 5

  95. ID in the original source medium : 4608 (0x1200)

  96. Format : PGS

  97. Muxing mode : zlib

  98. Codec ID : S_HDMV/PGS

  99. Codec ID/Info : Picture based subtitle format used on BDs/HD-DVDs

  100. Duration : 1 h 21 min

  101. Bit rate : 25.4 kb/s

  102. Count of elements : 1926

  103. Stream size : 14.8 MiB (0%)

  104. Title : cht

  105. Language : Chinese

  106. Default : No

  107. Forced : No

  108. Original source medium : Blu-ray


  109. Text #3

  110. ID : 6

  111. ID in the original source medium : 4610 (0x1202)

  112. Format : PGS

  113. Muxing mode : zlib

  114. Codec ID : S_HDMV/PGS

  115. Codec ID/Info : Picture based subtitle format used on BDs/HD-DVDs

  116. Duration : 1 h 21 min

  117. Bit rate : 25.2 kb/s

  118. Count of elements : 1926

  119. Stream size : 14.7 MiB (0%)

  120. Title : eng

  121. Language : English

  122. Default : No

  123. Forced : No

  124. Original source medium : Blu-ray


  125. Menu

  126. 00:00:00.000 : 第 01 章

  127. 00:07:02.458 : 第 02 章

  128. 00:13:07.875 : 第 03 章

  129. 00:22:42.666 : 第 04 章

  130. 00:30:55.708 : 第 05 章

  131. 00:38:33.541 : 第 06 章

  132. 00:46:17.500 : 第 07 章

  133. 00:52:57.166 : 第 08 章

  134. 01:00:33.041 : 第 09 章

  135. 01:07:09.083 : 第 10 章

  136. 01:14:28.291 : 第 11 章

  137. 01:20:50.708 : 第 12 章



文件下载


除非特别注明,本文『三人行[国语配音/粤语配音/中文字幕].Three.2016.1080p.BluRay.x265.10bit.DTS.2Audio 6.23GB』来源于互联网机器人自动抓取,非本站原创。 浮游电影网不对本文拥有版权,如有侵犯,请联系邮箱:fuyouu#yandex.com[#换成@]投诉。我们会在15个工作日内删除。 但烦请转载时请标明出处:“本文转载于『浮游电影网』,原文地址:https://www.fuyouu.com/13750.html

评论吧骚年!

发表你的见解   

昵称*

E-mail*(建议输入,以便收到博主回复的提示邮件)

验证码*

您可以使用eMule或eMule Mod(Windows)、aMule(Win、Linux、Mac)等软件下载eD2k链接。。
eMule收藏集(.emulecollection)文件是您选中的所有链接的列表文件。eMule可以直接下载它们。
按住SHIFT键选择可以选中多个选择框。
可用文件名和大小选择器来选择文件。
文件名选择器帮您根据文件名称或后缀来选择文件。不分大小写。
符号使用:
和:空格( )、+
不包含:-
或:|
转义:一对英文引号("");
匹配开头:^
匹配结尾:$
例如:
选中所有名称中包含有“eMule”或“0.49c”字眼,但不包含有“exe”字眼的:emule|0.49c -exe
选中所有名称的开头是“eMule”,结尾是“0.49c”的:^emule 0.49c$
选中所有名称中带有“eMule 0.49c”的(必须是“eMule 0.49c”,中间没有别的字符,不能是“eMule fake 0.49c”),需要转义:"emule 0.49c"
大小选择器帮您根据文件大小选择文件。