当前位置: 首页 >> 港台电影 >> 马戏小子[国语].Circus.Kid.1994.2160p.WEB-DL.H265.AAC 9.85GB >> 正文

马戏小子[国语].Circus.Kid.1994.2160p.WEB-DL.H265.AAC 9.85GB

2021年08月19日 23:09:47     电影发布:来源于网络     电影分类:港台电影     评论(0)    

马戏小子[国语].Circus.Kid.1994.2160p.WEB DL.H265.AAC 9.85GB 动作片 港台电影  第1张

◎译 名 马戏小子 / 江湖情未了 / 破军之战 / Circus Kid / 马戏情未了

◎片 名 馬戲小子

◎年 代 1994

◎产 地 中国香港 / 中国大陆

◎类 别 动作

◎语 言 粤语

◎上映日期 1994-09-10(中国香港)

◎IMDb链接 https://www.imdb.com/title/tt0110418/

◎豆瓣评分 6.1/10 (956人评价)

◎豆瓣链接 https://movie.douban.com/subject/1307918/

◎片 长 94分钟

◎导 演 午马 Wu Ma (id:1054282)

◎编 剧 李敏才 Man Choi Lee (id:1326368)

◎演 员 元彪 Biao Yuen (id:1163752)

甄子丹 Donnie Yen (id:1025194)

温碧霞 Irene Wan (id:1023681)

午马 Wu Ma (id:1054282)

卢惠光 Ken Lo (id:1032633)

郑爽 Shuang Zheng (id:1275766)

林威 Wai Lam (id:1289306)

李莉莉 Lily Lee (id:1342453)

方宝华 Bao-Hua Fang (id:1355395)

◎标 签 动作 / 香港 / 甄子丹 / 香港电影 / 元彪 / 午马 / 1994 / 温碧霞

◎简 介

上世纪30年代,凭借空中飞人而闻名遐迩的上海常福马戏团正四处巡演,其间状况不断,全靠当家人沈师傅(午马 饰)和众位徒弟、女儿齐心协力方度过一个又一个难关。在一次演出中,日寇的飞机投下颗颗炸弹,炸毁了马戏团的所有设施。团员们虽然侥幸逃生,然而国难当头,只得各自奔前程。

沈师傅带着大女儿丁梅(李莉莉 饰)、二女丁兰(温碧霞 饰)、三女丁菊(胡樱汶 饰)、大女婿义天(林威 饰)以及几个小徒弟南下,准备投奔在那里的弟弟。顽劣的徒弟乐义东(元彪 饰)也尾随前来。覆巢之下安有完卵,他们所要依靠之人也各遭各难。义东等人只得瞒着师傅在街头卖艺,由此结识了正直的警察队长唐发(甄子丹 饰),也遭遇着颠离世道的种种不公……

  1. ##### MediaInfo ######

  2. General

  3. Complete name : 马戏小子.Circus.Kid.1994.2160p.WEB-DL.H265.AAC-10006@BBQDDQ.COM.mp4

  4. Format : MPEG-4

  5. Format profile : Base Media

  6. Codec ID : isom (isom/iso2/mp41)

  7. File size : 9.85 GiB

  8. Duration : 1 h 34 min

  9. Overall bit rate mode : Variable

  10. Overall bit rate : 15.0 Mb/s

  11. Writing application : OurTV Multimedia Platform


  12. Video

  13. ID : 1

  14. Format : HEVC

  15. Format/Info : High Efficiency Video Coding

  16. Format profile : Main@L5@Main

  17. Codec ID : hev1

  18. Codec ID/Info : High Efficiency Video Coding

  19. Duration : 1 h 34 min

  20. Bit rate : 14.8 Mb/s

  21. Width : 3 840 pixels

  22. Height : 2 160 pixels

  23. Display aspect ratio : 16:9

  24. Frame rate mode : Constant

  25. Frame rate : 25.000 FPS

  26. Color space : YUV

  27. Chroma subsampling : 4:2:0

  28. Bit depth : 8 bits

  29. Bits/(Pixel*Frame) : 0.072

  30. Stream size : 9.76 GiB (99%)

  31. mdhd_Duration : 5650320

  32. Codec configuration box : hvcC


  33. Audio

  34. ID : 2

  35. Format : AAC LC

  36. Format/Info : Advanced Audio Codec Low Complexity

  37. Codec ID : mp4a-40-2

  38. Duration : 1 h 34 min

  39. Bit rate mode : Variable

  40. Bit rate : 125 kb/s

  41. Maximum bit rate : 128 kb/s / 128 kb/s

  42. Channel(s) : 2 channels

  43. Channel layout : L R

  44. Sampling rate : 48.0 kHz

  45. Frame rate : 46.875 FPS (1024 SPF)

  46. Compression mode : Lossy

  47. Stream size : 84.4 MiB (1%)

  48. Default : Yes

  49. Alternate group : 1


文件下载


除非特别注明,本文『马戏小子[国语].Circus.Kid.1994.2160p.WEB-DL.H265.AAC 9.85GB』来源于互联网机器人自动抓取,非本站原创。 浮游电影网不对本文拥有版权,如有侵犯,请联系邮箱:fuyouu#yandex.com[#换成@]投诉。我们会在15个工作日内删除。 但烦请转载时请标明出处:“本文转载于『浮游电影网』,原文地址:https://www.fuyouu.com/13746.html

评论吧骚年!

发表你的见解   

昵称*

E-mail*(建议输入,以便收到博主回复的提示邮件)

验证码*

您可以使用eMule或eMule Mod(Windows)、aMule(Win、Linux、Mac)等软件下载eD2k链接。。
eMule收藏集(.emulecollection)文件是您选中的所有链接的列表文件。eMule可以直接下载它们。
按住SHIFT键选择可以选中多个选择框。
可用文件名和大小选择器来选择文件。
文件名选择器帮您根据文件名称或后缀来选择文件。不分大小写。
符号使用:
和:空格( )、+
不包含:-
或:|
转义:一对英文引号("");
匹配开头:^
匹配结尾:$
例如:
选中所有名称中包含有“eMule”或“0.49c”字眼,但不包含有“exe”字眼的:emule|0.49c -exe
选中所有名称的开头是“eMule”,结尾是“0.49c”的:^emule 0.49c$
选中所有名称中带有“eMule 0.49c”的(必须是“eMule 0.49c”,中间没有别的字符,不能是“eMule fake 0.49c”),需要转义:"emule 0.49c"
大小选择器帮您根据文件大小选择文件。